  0
SECTION
  2
HEADER
  9
$ACADVER
  1
AC1018
  9
$ACADMAINTVER
 70
   104
  9
$DWGCODEPAGE
  3
ANSI_936
  9
$LASTSAVEDBY
  1
Administrator
  9
$INSBASE
 10
0.0
 20
0.0
 30
0.0
  9
$EXTMIN
 10
1316.545643919706
 20
-364.8707811592956
 30
0.0
  9
$EXTMAX
 10
1351.356410929337
 20
-283.9342886597159
 30
0.0
  9
$LIMMIN
 10
0.0
 20
0.0
  9
$LIMMAX
 10
12.0
 20
9.0
  9
$ORTHOMODE
 70
     1
  9
$REGENMODE
 70
     1
  9
$FILLMODE
 70
     1
  9
$QTEXTMODE
 70
     0
  9
$MIRRTEXT
 70
     0
  9
$LTSCALE
 40
1.0
  9
$ATTMODE
 70
     1
  9
$TEXTSIZE
 40
0.2
  9
$TRACEWID
 40
0.05
  9
$TEXTSTYLE
  7
STANDARD
  9
$CLAYER
  8
标注线
  9
$CELTYPE
  6
ByLayer
  9
$CECOLOR
 62
   256
  9
$CELTSCALE
 40
1.0
  9
$DISPSILH
 70
     0
  9
$DIMSCALE
 40
1.0
  9
$DIMASZ
 40
0.65
  9
$DIMEXO
 40
0.88
  9
$DIMDLI
 40
0.015
  9
$DIMRND
 40
0.0
  9
$DIMDLE
 40
0.0
  9
$DIMEXE
 40
0.32
  9
$DIMTP
 40
0.0
  9
$DIMTM
 40
0.0
  9
$DIMTXT
 40
0.65
  9
$DIMCEN
 40
0.09
  9
$DIMTSZ
 40
0.0
  9
$DIMTOL
 70
     0
  9
$DIMLIM
 70
     0
  9
$DIMTIH
 70
     0
  9
$DIMTOH
 70
     0
  9
$DIMSE1
 70
     0
  9
$DIMSE2
 70
     0
  9
$DIMTAD
 70
     0
  9
$DIMZIN
 70
     8
  9
$DIMBLK
  1

  9
$DIMASO
 70
     1
  9
$DIMSHO
 70
     1
  9
$DIMPOST
  1
"
  9
$DIMAPOST
  1
"
  9
$DIMALT
 70
     0
  9
$DIMALTD
 70
     1
  9
$DIMALTF
 40
0.03937
  9
$DIMLFAC
 40
1.0
  9
$DIMTOFL
 70
     1
  9
$DIMTVP
 40
0.0
  9
$DIMTIX
 70
     0
  9
$DIMSOXD
 70
     0
  9
$DIMSAH
 70
     0
  9
$DIMBLK1
  1

  9
$DIMBLK2
  1

  9
$DIMSTYLE
  2
副本STANDARD
  9
$DIMCLRD
 70
   256
  9
$DIMCLRE
 70
   256
  9
$DIMCLRT
 70
   256
  9
$DIMTFAC
 40
1.0
  9
$DIMGAP
 40
0.3
  9
$DIMJUST
 70
     0
  9
$DIMSD1
 70
     0
  9
$DIMSD2
 70
     0
  9
$DIMTOLJ
 70
     1
  9
$DIMTZIN
 70
     8
  9
$DIMALTZ
 70
     8
  9
$DIMALTTZ
 70
     8
  9
$DIMUPT
 70
     0
  9
$DIMDEC
 70
     3
  9
$DIMTDEC
 70
     3
  9
$DIMALTU
 70
     2
  9
$DIMALTTD
 70
     1
  9
$DIMTXSTY
  7
STANDARD
  9
$DIMAUNIT
 70
     0
  9
$DIMADEC
 70
     0
  9
$DIMALTRND
 40
0.0
  9
$DIMAZIN
 70
     0
  9
$DIMDSEP
 70
    46
  9
$DIMATFIT
 70
     3
  9
$DIMFRAC
 70
     2
  9
$DIMLDRBLK
  1

  9
$DIMLUNIT
 70
     5
  9
$DIMLWD
 70
    -2
  9
$DIMLWE
 70
    -2
  9
$DIMTMOVE
 70
     2
  9
$LUNITS
 70
     2
  9
$LUPREC
 70
     4
  9
$SKETCHINC
 40
0.1
  9
$FILLETRAD
 40
0.0
  9
$AUNITS
 70
     0
  9
$AUPREC
 70
     0
  9
$MENU
  1
.
  9
$ELEVATION
 40
0.0
  9
$PELEVATION
 40
0.0
  9
$THICKNESS
 40
0.0
  9
$LIMCHECK
 70
     0
  9
$CHAMFERA
 40
0.0
  9
$CHAMFERB
 40
0.0
  9
$CHAMFERC
 40
0.0
  9
$CHAMFERD
 40
0.0
  9
$SKPOLY
 70
     0
  9
$TDCREATE
 40
2455434.724808658
  9
$TDUCREATE
 40
2455434.391475324
  9
$TDUPDATE
 40
2458690.412159584
  9
$TDUUPDATE
 40
2458690.078826250
  9
$TDINDWG
 40
0.7802145718
  9
$TDUSRTIMER
 40
0.7801966898
  9
$USRTIMER
 70
     1
  9
$ANGBASE
 50
0.0
  9
$ANGDIR
 70
     0
  9
$PDMODE
 70
     0
  9
$PDSIZE
 40
0.0
  9
$PLINEWID
 40
0.0
  9
$SPLFRAME
 70
     0
  9
$SPLINETYPE
 70
     6
  9
$SPLINESEGS
 70
     8
  9
$HANDSEED
  5
8CBB
  9
$SURFTAB1
 70
     6
  9
$SURFTAB2
 70
     6
  9
$SURFTYPE
 70
     6
  9
$SURFU
 70
     6
  9
$SURFV
 70
     6
  9
$UCSBASE
  2

  9
$UCSNAME
  2

  9
$UCSORG
 10
0.0
 20
0.0
 30
0.0
  9
$UCSXDIR
 10
1.0
 20
0.0
 30
0.0
  9
$UCSYDIR
 10
0.0
 20
1.0
 30
0.0
  9
$UCSORTHOREF
  2

  9
$UCSORTHOVIEW
 70
     0
  9
$UCSORGTOP
 10
0.0
 20
0.0
 30
0.0
  9
$UCSORGBOTTOM
 10
0.0
 20
0.0
 30
0.0
  9
$UCSORGLEFT
 10
0.0
 20
0.0
 30
0.0
  9
$UCSORGRIGHT
 10
0.0
 20
0.0
 30
0.0
  9
$UCSORGFRONT
 10
0.0
 20
0.0
 30
0.0
  9
$UCSORGBACK
 10
0.0
 20
0.0
 30
0.0
  9
$PUCSBASE
  2

  9
$PUCSNAME
  2

  9
$PUCSORG
 10
0.0
 20
0.0
 30
0.0
  9
$PUCSXDIR
 10
1.0
 20
0.0
 30
0.0
  9
$PUCSYDIR
 10
0.0
 20
1.0
 30
0.0
  9
$PUCSORTHOREF
  2

  9
$PUCSORTHOVIEW
 70
     0
  9
$PUCSORGTOP
 10
0.0
 20
0.0
 30
0.0
  9
$PUCSORGBOTTOM
 10
0.0
 20
0.0
 30
0.0
  9
$PUCSORGLEFT
 10
0.0
 20
0.0
 30
0.0
  9
$PUCSORGRIGHT
 10
0.0
 20
0.0
 30
0.0
  9
$PUCSORGFRONT
 10
0.0
 20
0.0
 30
0.0
  9
$PUCSORGBACK
 10
0.0
 20
0.0
 30
0.0
  9
$USERI1
 70
     0
  9
$USERI2
 70
     0
  9
$USERI3
 70
     0
  9
$USERI4
 70
     0
  9
$USERI5
 70
     0
  9
$USERR1
 40
0.0
  9
$USERR2
 40
0.0
  9
$USERR3
 40
0.0
  9
$USERR4
 40
0.0
  9
$USERR5
 40
2.5
  9
$WORLDVIEW
 70
     1
  9
$SHADEDGE
 70
     3
  9
$SHADEDIF
 70
    70
  9
$TILEMODE
 70
     1
  9
$MAXACTVP
 70
    64
  9
$PINSBASE
 10
0.0
 20
0.0
 30
0.0
  9
$PLIMCHECK
 70
     0
  9
$PEXTMIN
 10
1.000000000000000E+20
 20
1.000000000000000E+20
 30
1.000000000000000E+20
  9
$PEXTMAX
 10
-1.000000000000000E+20
 20
-1.000000000000000E+20
 30
-1.000000000000000E+20
  9
$PLIMMIN
 10
0.0
 20
0.0
  9
$PLIMMAX
 10
12.0
 20
9.0
  9
$UNITMODE
 70
     0
  9
$VISRETAIN
 70
     1
  9
$PLINEGEN
 70
     0
  9
$PSLTSCALE
 70
     1
  9
$TREEDEPTH
 70
  3020
  9
$CMLSTYLE
  2
Standard
  9
$CMLJUST
 70
     0
  9
$CMLSCALE
 40
1.0
  9
$PROXYGRAPHICS
 70
     1
  9
$MEASUREMENT
 70
     0
  9
$CELWEIGHT
370
    -1
  9
$ENDCAPS
280
     0
  9
$JOINSTYLE
280
     0
  9
$LWDISPLAY
290
     0
  9
$INSUNITS
 70
     0
  9
$HYPERLINKBASE
  1

  9
$STYLESHEET
  1

  9
$XEDIT
290
     1
  9
$CEPSNTYPE
380
     0
  9
$PSTYLEMODE
290
     1
  9
$FINGERPRINTGUID
  2
{7BAC09DB-C4D0-41DB-8C07-4C6808ADD930}
  9
$VERSIONGUID
  2
{55CC98B1-55C0-4AB5-A7A6-9B5D0E2A081A}
  9
$EXTNAMES
290
     1
  9
$PSVPSCALE
 40
0.0
  9
$OLESTARTUP
290
     0
  9
$SORTENTS
280
   127
  9
$INDEXCTL
280
     0
  9
$HIDETEXT
280
     0
  9
$XCLIPFRAME
290
     0
  9
$HALOGAP
280
     0
  9
$OBSCOLOR
 70
   257
  9
$OBSLTYPE
280
     0
  9
$INTERSECTIONDISPLAY
280
     0
  9
$INTERSECTIONCOLOR
 70
   257
  9
$DIMASSOC
280
     1
  9
$PROJECTNAME
  1

  0
ENDSEC
  0
SECTION
  2
CLASSES
  0
CLASS
  1
ACDBDICTIONARYWDFLT
  2
AcDbDictionaryWithDefault
  3
ObjectDBX Classes
 90
        0
 91
        1
280
     0
281
     0
  0
CLASS
  1
MATERIAL
  2
AcDbMaterial
  3
ObjectDBX Classes
 90
     1024
 91
        3
280
     0
281
     0
  0
CLASS
  1
VISUALSTYLE
  2
AcDbVisualStyle
  3
ObjectDBX Classes
 90
     4095
 91
       16
280
     0
281
     0
  0
CLASS
  1
SCALE
  2
AcDbScale
  3
ObjectDBX Classes
 90
     1153
 91
       33
280
     0
281
     0
  0
CLASS
  1
TABLESTYLE
  2
AcDbTableStyle
  3
ObjectDBX Classes
 90
     4095
 91
        1
280
     0
281
     0
  0
CLASS
  1
MLEADERSTYLE
  2
AcDbMLeaderStyle
  3
ACDB_MLEADERSTYLE_CLASS
 90
     4095
 91
        1
280
     0
281
     0
  0
CLASS
  1
VLO-VL
  2
vlo_VL
  3
VL|AutoLISP based application
 90
      129
 91
        1
280
     0
281
     0
  0
CLASS
  1
DICTIONARYVAR
  2
AcDbDictionaryVar
  3
ObjectDBX Classes
 90
        0
 91
        6
280
     0
281
     0
  0
CLASS
  1
CELLSTYLEMAP
  2
AcDbCellStyleMap
  3
ObjectDBX Classes
 90
     1152
 91
        1
280
     0
281
     0
  0
CLASS
  1
DIMASSOC
  2
AcDbDimAssoc
  3
"AcDbDimAssoc|Product Desc:     AcDim ARX App For Dimension|Company:          Autodesk, Inc.|WEB Address:      www.autodesk.com"
 90
        0
 91
        2
280
     0
281
     0
  0
CLASS
  1
SORTENTSTABLE
  2
AcDbSortentsTable
  3
ObjectDBX Classes
 90
        0
 91
        1
280
     0
281
     0
  0
CLASS
  1
ACDBPLACEHOLDER
  2
AcDbPlaceHolder
  3
ObjectDBX Classes
 90
        0
 91
        1
280
     0
281
     0
  0
CLASS
  1
LAYOUT
  2
AcDbLayout
  3
ObjectDBX Classes
 90
        0
 91
        2
280
     0
281
     0
  0
ENDSEC
  0
SECTION
  2
TABLES
  0
TABLE
  2
VPORT
  5
5F02
330
0
100
AcDbSymbolTable
 70
     1
  0
VPORT
  5
5F73
330
5F02
100
AcDbSymbolTableRecord
100
AcDbViewportTableRecord
  2
*ACTIVE
 70
     0
 10
0.0
 20
0.0
 11
1.0
 21
1.0
 12
1316.029561462996
 22
-312.6356656933213
 13
0.0
 23
0.0
 14
0.5
 24
0.5
 15
0.5
 25
0.5
 16
0.0
 26
0.0
 36
1.0
 17
0.0
 27
0.0
 37
0.0
 40
87.56004881371518
 41
2.205741626794258
 42
50.0
 43
0.0
 44
0.0
 50
0.0
 51
0.0
 71
     0
 72
  1000
 73
     1
 74
     3
 75
     0
 76
     0
 77
     0
 78
     0
281
     0
 65
     1
110
0.0
120
0.0
130
0.0
111
1.0
121
0.0
131
0.0
112
0.0
122
1.0
132
0.0
 79
     0
146
0.0
  0
ENDTAB
  0
TABLE
  2
LTYPE
  5
5EFF
330
0
100
AcDbSymbolTable
 70
     4
  0
LTYPE
  5
5F5C
330
5EFF
100
AcDbSymbolTableRecord
100
AcDbLinetypeTableRecord
  2
ByBlock
 70
     0
  3

 72
    65
 73
     0
 40
0.0
  0
LTYPE
  5
5F5D
330
5EFF
100
AcDbSymbolTableRecord
100
AcDbLinetypeTableRecord
  2
ByLayer
 70
     0
  3

 72
    65
 73
     0
 40
0.0
  0
LTYPE
  5
5F5E
330
5EFF
100
AcDbSymbolTableRecord
100
AcDbLinetypeTableRecord
  2
CONTINUOUS
 70
     0
  3
Solid line
 72
    65
 73
     0
 40
0.0
  0
LTYPE
  5
5F74
330
5EFF
100
AcDbSymbolTableRecord
100
AcDbLinetypeTableRecord
  2
CENTER2
 70
     0
  3
Center (.5x) ___ _ ___ _ ___ _ ___ _ ___ _ ___
 72
    65
 73
     4
 40
28.575
 49
19.05
 74
     0
 49
-3.174999999999998
 74
     0
 49
3.174999999999998
 74
     0
 49
-3.174999999999998
 74
     0
  0
LTYPE
  5
5F75
330
5EFF
100
AcDbSymbolTableRecord
100
AcDbLinetypeTableRecord
  2
HIDDEN2
 70
     0
  3
Hidden (.5x) _ _ _ _ _ _ _ _ _ _ _ _ _ _ _ _ _
 72
    65
 73
     2
 40
4.762499999999998
 49
3.174999999999998
 74
     0
 49
-1.587499999999999
 74
     0
  0
LTYPE
  5
88C9
330
5EFF
100
AcDbSymbolTableRecord
100
AcDbLinetypeTableRecord
  2
ACAD_ISO02W100
 70
     0
  3
ISO dash __ __ __ __ __ __ __ __ __ __ __ __ __
 72
    65
 73
     2
 40
15.0
 49
12.0
 74
     0
 49
-3.0
 74
     0
  0
ENDTAB
  0
TABLE
  2
LAYER
  5
5EFC
102
{ACAD_XDICTIONARY
360
61B7
102
}
330
0
100
AcDbSymbolTable
 70
     8
  0
LAYER
  5
5F56
102
{ACAD_XDICTIONARY
360
60F4
102
}
330
5EFC
100
AcDbSymbolTableRecord
100
AcDbLayerTableRecord
  2
0
 70
     0
 62
     7
  6
CONTINUOUS
370
    -3
390
5F09
  0
LAYER
  5
5F72
102
{ACAD_XDICTIONARY
360
60F6
102
}
330
5EFC
100
AcDbSymbolTableRecord
100
AcDbLayerTableRecord
  2
标注
 70
     0
 62
    80
  6
CONTINUOUS
370
    -3
390
5F09
  0
LAYER
  5
5F7D
102
{ACAD_XDICTIONARY
360
60F8
102
}
330
5EFC
100
AcDbSymbolTableRecord
100
AcDbLayerTableRecord
  2
中心线
 70
     0
 62
     1
  6
CENTER2
370
    -3
390
5F09
  0
LAYER
  5
5F7E
102
{ACAD_XDICTIONARY
360
60FA
102
}
330
5EFC
100
AcDbSymbolTableRecord
100
AcDbLayerTableRecord
  2
虚线
 70
     0
 62
     4
  6
HIDDEN2
370
    -3
390
5F09
  0
LAYER
  5
5F7F
330
5EFC
100
AcDbSymbolTableRecord
100
AcDbLayerTableRecord
  2
DEFPOINTS
 70
     0
 62
     7
  6
CONTINUOUS
290
     0
370
    -3
390
5F09
  0
LAYER
  5
5F80
102
{ACAD_XDICTIONARY
360
60FC
102
}
330
5EFC
100
AcDbSymbolTableRecord
100
AcDbLayerTableRecord
  2
细实线
 70
     0
 62
     7
  6
CONTINUOUS
370
    -3
390
5F09
  0
LAYER
  5
6B9C
102
{ACAD_XDICTIONARY
360
6B9D
102
}
330
5EFC
100
AcDbSymbolTableRecord
100
AcDbLayerTableRecord
  2
截面层
 70
     0
 62
     6
  6
CONTINUOUS
370
    13
390
5F09
  0
LAYER
  5
776F
330
5EFC
100
AcDbSymbolTableRecord
100
AcDbLayerTableRecord
  2
标注线
 70
     0
 62
     3
  6
CONTINUOUS
370
     9
390
5F09
  0
ENDTAB
  0
TABLE
  2
STYLE
  5
5EFD
330
0
100
AcDbSymbolTable
 70
     2
  0
STYLE
  5
5F57
330
5EFD
100
AcDbSymbolTableRecord
100
AcDbTextStyleTableRecord
  2
STANDARD
 70
     0
 40
0.0
 41
1.0
 50
0.0
 71
     0
 42
0.2
  3
arial.ttf
  4

1001
ACAD
1000
Arial
1071
       34
  0
STYLE
  5
7201
330
5EFD
100
AcDbSymbolTableRecord
100
AcDbTextStyleTableRecord
  2
Arial
 70
     0
 40
0.0
 41
1.0
 50
0.0
 71
     0
 42
0.2
  3
arial.ttf
  4

1001
ACAD
1000
Arial
1071
       34
  0
ENDTAB
  0
TABLE
  2
VIEW
  5
5F00
330
0
100
AcDbSymbolTable
 70
     0
  0
ENDTAB
  0
TABLE
  2
UCS
  5
5F01
330
0
100
AcDbSymbolTable
 70
     0
  0
ENDTAB
  0
TABLE
  2
APPID
  5
5F03
330
0
100
AcDbSymbolTable
 70
    28
  0
APPID
  5
5F58
330
5F03
100
AcDbSymbolTableRecord
100
AcDbRegAppTableRecord
  2
ACAD
 70
     0
  0
APPID
  5
5F5F
330
5F03
100
AcDbSymbolTableRecord
100
AcDbRegAppTableRecord
  2
ACADANNOTATIVE
 70
     0
  0
APPID
  5
5F69
330
5F03
100
AcDbSymbolTableRecord
100
AcDbRegAppTableRecord
  2
ACAD_MLEADERVER
 70
     0
  0
APPID
  5
5F84
330
5F03
100
AcDbSymbolTableRecord
100
AcDbRegAppTableRecord
  2
ACAECLAYERSTANDARD
 70
     0
  0
APPID
  5
5F85
330
5F03
100
AcDbSymbolTableRecord
100
AcDbRegAppTableRecord
  2
ACAD_DSTYLE_DIMEXT_LENGTH
 70
     0
  0
APPID
  5
5F86
330
5F03
100
AcDbSymbolTableRecord
100
AcDbRegAppTableRecord
  2
ACAD_DSTYLE_DIMEXT_ENABLED
 70
     0
  0
APPID
  5
5F87
330
5F03
100
AcDbSymbolTableRecord
100
AcDbRegAppTableRecord
  2
ACAD_DSTYLE_DIMJOGGED_JOGA
 70
     0
  0
APPID
  5
5F88
330
5F03
100
AcDbSymbolTableRecord
100
AcDbRegAppTableRecord
  2
ACAD_DSTYLE_DIMARC_LENGTH_
 70
     0
  0
APPID
  5
5F89
330
5F03
100
AcDbSymbolTableRecord
100
AcDbRegAppTableRecord
  2
ACAD_PSEXT
 70
     0
  0
APPID
  5
5F8A
330
5F03
100
AcDbSymbolTableRecord
100
AcDbRegAppTableRecord
  2
MCAD_NO_VIS
 70
     0
  0
APPID
  5
5F8B
330
5F03
100
AcDbSymbolTableRecord
100
AcDbRegAppTableRecord
  2
ACAD_TEMP_GRAPHIC
 70
     0
  0
APPID
  5
5F8C
330
5F03
100
AcDbSymbolTableRecord
100
AcDbRegAppTableRecord
  2
AD_DRAW
 70
     0
  0
APPID
  5
5F8D
330
5F03
100
AcDbSymbolTableRecord
100
AcDbRegAppTableRecord
  2
ACATTRIBSERVICES
 70
     0
  0
APPID
  5
5F8E
330
5F03
100
AcDbSymbolTableRecord
100
AcDbRegAppTableRecord
  2
DESIGNERASSEMBLIES
 70
     0
  0
APPID
  5
5F8F
330
5F03
100
AcDbSymbolTableRecord
100
AcDbRegAppTableRecord
  2
ACADM_DIM_EDIT
 70
     0
  0
APPID
  5
5F90
330
5F03
100
AcDbSymbolTableRecord
100
AcDbRegAppTableRecord
  2
AMDT_DM_ADJ
 70
     0
  0
APPID
  5
5F91
330
5F03
100
AcDbSymbolTableRecord
100
AcDbRegAppTableRecord
  2
ACAD_DSTYLE_DIMJAG
 70
     0
  0
APPID
  5
5F92
330
5F03
100
AcDbSymbolTableRecord
100
AcDbRegAppTableRecord
  2
ACAD_DSTYLE_DIMBREAK
 70
     0
  0
APPID
  5
5F93
330
5F03
100
AcDbSymbolTableRecord
100
AcDbRegAppTableRecord
  2
ACAD_DSTYLE_DIMTALN
 70
     0
  0
APPID
  5
5F94
330
5F03
100
AcDbSymbolTableRecord
100
AcDbRegAppTableRecord
  2
GENIUS_GENODEF_13
 70
     0
  0
APPID
  5
5F95
330
5F03
100
AcDbSymbolTableRecord
100
AcDbRegAppTableRecord
  2
GENIUS_GENOBJ-N-FIL_13
 70
     0
  0
APPID
  5
5F96
330
5F03
100
AcDbSymbolTableRecord
100
AcDbRegAppTableRecord
  2
ACAD_EXEMPT_FROM_CAD_STANDARDS
 70
     0
  0
APPID
  5
5F97
330
5F03
100
AcDbSymbolTableRecord
100
AcDbRegAppTableRecord
  2
ACAD_DSTYLE_DIM_LINETYPE
 70
     0
  0
APPID
  5
5F98
330
5F03
100
AcDbSymbolTableRecord
100
AcDbRegAppTableRecord
  2
ACAD_DSTYLE_DIM_EXT1_LINETYPE
 70
     0
  0
APPID
  5
5F99
330
5F03
100
AcDbSymbolTableRecord
100
AcDbRegAppTableRecord
  2
ACAD_DSTYLE_DIM_EXT2_LINETYPE
 70
     0
  0
APPID
  5
5F9A
330
5F03
100
AcDbSymbolTableRecord
100
AcDbRegAppTableRecord
  2
ACAD_DSTYLE_DIMRADIAL_EXTENSION
 70
     0
  0
APPID
  5
6488
330
5F03
100
AcDbSymbolTableRecord
100
AcDbRegAppTableRecord
  2
AcadAnnoPO
 70
     0
  0
APPID
  5
7772
330
5F03
100
AcDbSymbolTableRecord
100
AcDbRegAppTableRecord
  2
ACAD_DSTYLE_DIMJOGGED_JOGANGLE_SYMBOL
 70
     0
  0
ENDTAB
  0
TABLE
  2
DIMSTYLE
  5
5F04
330
0
100
AcDbSymbolTable
 70
     3
100
AcDbDimStyleTable
 71
     2
340
5F9B
340
5F59
  0
DIMSTYLE
105
5F59
330
5F04
100
AcDbSymbolTableRecord
100
AcDbDimStyleTableRecord
  2
STANDARD
 70
     0
 41
0.65
 73
     0
 74
     0
140
0.65
176
     3
177
     3
178
     3
271
     3
272
     3
276
     2
277
     5
279
     2
284
     8
285
     8
286
     8
340
5F57
371
    13
372
    13
1001
ACAD_DSTYLE_DIMJAG
1070
   388
1040
1.5
1001
ACAD_DSTYLE_DIMTALN
1070
   392
1070
     0
1001
ACAD_DSTYLE_DIM_LINETYPE
1070
   380
1005
5F5E
1001
ACAD_DSTYLE_DIM_EXT1_LINETYPE
1070
   381
1005
5F5E
1001
ACAD_DSTYLE_DIM_EXT2_LINETYPE
1070
   382
1005
5F5E
  0
DIMSTYLE
105
5F9B
102
{ACAD_REACTORS
330
892F
330
8931
330
8932
330
8933
330
8962
330
8965
102
}
330
5F04
100
AcDbSymbolTableRecord
100
AcDbDimStyleTableRecord
  2
副本STANDARD
 70
     0
  3
"
  4
"
 41
0.65
 42
0.88
 43
0.015
 44
0.32
 73
     0
 74
     0
 78
     8
140
0.65
143
0.03937
147
0.3
171
     1
172
     1
176
   256
177
   256
178
   256
271
     3
272
     3
274
     1
276
     2
277
     5
279
     2
284
     8
285
     8
286
     8
340
5F57
1001
ACAD_DSTYLE_DIMJAG
1070
   388
1040
1.5
1001
ACAD_DSTYLE_DIMTALN
1070
   392
1070
     0
  0
DIMSTYLE
105
848C
102
{ACAD_REACTORS
330
8A42
102
}
330
5F04
100
AcDbSymbolTableRecord
100
AcDbDimStyleTableRecord
  2
副本Standard$0
 70
     0
  4
"
 41
16.0
 42
20.0
 44
7.0
 73
     0
 74
     0
 78
     8
 79
     2
140
20.0
143
0.03937
147
5.0
171
     3
172
     1
176
   256
177
   256
178
   256
179
     1
271
     1
272
     1
273
     7
274
     3
278
    44
340
5F57
1001
ACAD_DSTYLE_DIMBREAK
1070
   391
1040
0.125
1001
ACAD_DSTYLE_DIMJAG
1070
   388
1040
1.5
  0
ENDTAB
  0
TABLE
  2
BLOCK_RECORD
  5
5EFB
330
0
100
AcDbSymbolTable
 70
    19
  0
BLOCK_RECORD
  5
5F6E
102
{ACAD_XDICTIONARY
360
654F
102
}
330
5EFB
100
AcDbSymbolTableRecord
100
AcDbBlockTableRecord
  2
*Model_Space
340
5F71
  0
BLOCK_RECORD
  5
5F6A
330
5EFB
100
AcDbSymbolTableRecord
100
AcDbBlockTableRecord
  2
*Paper_Space
340
5F6D
  0
BLOCK_RECORD
  5
860F
330
5EFB
100
AcDbSymbolTableRecord
100
AcDbBlockTableRecord
  2
*D0
340
0
  0
BLOCK_RECORD
  5
861D
330
5EFB
100
AcDbSymbolTableRecord
100
AcDbBlockTableRecord
  2
*D1
340
0
  0
BLOCK_RECORD
  5
862A
330
5EFB
100
AcDbSymbolTableRecord
100
AcDbBlockTableRecord
  2
*D2
340
0
  0
BLOCK_RECORD
  5
8637
330
5EFB
100
AcDbSymbolTableRecord
100
AcDbBlockTableRecord
  2
*D3
340
0
  0
BLOCK_RECORD
  5
8644
330
5EFB
100
AcDbSymbolTableRecord
100
AcDbBlockTableRecord
  2
*D4
340
0
  0
BLOCK_RECORD
  5
8651
330
5EFB
100
AcDbSymbolTableRecord
100
AcDbBlockTableRecord
  2
*D5
340
0
  0
BLOCK_RECORD
  5
865F
330
5EFB
100
AcDbSymbolTableRecord
100
AcDbBlockTableRecord
  2
*D6
340
0
  0
BLOCK_RECORD
  5
8677
330
5EFB
100
AcDbSymbolTableRecord
100
AcDbBlockTableRecord
  2
*D7
340
0
  0
BLOCK_RECORD
  5
8685
330
5EFB
100
AcDbSymbolTableRecord
100
AcDbBlockTableRecord
  2
*D8
340
0
  0
BLOCK_RECORD
  5
86BA
330
5EFB
100
AcDbSymbolTableRecord
100
AcDbBlockTableRecord
  2
*D9
340
0
  0
BLOCK_RECORD
  5
8968
330
5EFB
100
AcDbSymbolTableRecord
100
AcDbBlockTableRecord
  2
*D10
340
0
  0
BLOCK_RECORD
  5
8975
330
5EFB
100
AcDbSymbolTableRecord
100
AcDbBlockTableRecord
  2
*D11
340
0
  0
BLOCK_RECORD
  5
8982
330
5EFB
100
AcDbSymbolTableRecord
100
AcDbBlockTableRecord
  2
*D12
340
0
  0
BLOCK_RECORD
  5
898F
330
5EFB
100
AcDbSymbolTableRecord
100
AcDbBlockTableRecord
  2
*D13
340
0
  0
BLOCK_RECORD
  5
89C4
330
5EFB
100
AcDbSymbolTableRecord
100
AcDbBlockTableRecord
  2
*D14
340
0
  0
BLOCK_RECORD
  5
89D1
330
5EFB
100
AcDbSymbolTableRecord
100
AcDbBlockTableRecord
  2
*D15
340
0
  0
BLOCK_RECORD
  5
8A43
330
5EFB
100
AcDbSymbolTableRecord
100
AcDbBlockTableRecord
  2
*D16
340
0
  0
BLOCK_RECORD
  5
8C3A
330
5EFB
100
AcDbSymbolTableRecord
100
AcDbBlockTableRecord
  2
*D17
340
0
  0
BLOCK_RECORD
  5
8C48
330
5EFB
100
AcDbSymbolTableRecord
100
AcDbBlockTableRecord
  2
*D18
340
0
  0
ENDTAB
  0
ENDSEC
  0
SECTION
  2
BLOCKS
  0
BLOCK
  5
5F6F
330
5F6E
100
AcDbEntity
  8
0
100
AcDbBlockBegin
  2
*Model_Space
 70
     0
 10
0.0
 20
0.0
 30
0.0
  3
*Model_Space
  1

  0
ENDBLK
  5
5F70
330
5F6E
100
AcDbEntity
  8
0
100
AcDbBlockEnd
  0
BLOCK
  5
5F6B
330
5F6A
100
AcDbEntity
 67
     1
  8
0
100
AcDbBlockBegin
  2
*Paper_Space
 70
     0
 10
0.0
 20
0.0
 30
0.0
  3
*Paper_Space
  1

  0
ENDBLK
  5
5F6C
330
5F6A
100
AcDbEntity
 67
     1
  8
0
100
AcDbBlockEnd
  0
BLOCK
  5
8610
330
860F
100
AcDbEntity
  8
0
100
AcDbBlockBegin
  2
*D0
 70
     1
 10
0.0
 20
0.0
 30
0.0
  3
*D0
  1

  0
LINE
  5
8781
330
860F
100
AcDbEntity
  8
标注
  6
Continuous
370
    -2
100
AcDbLine
 10
1313.712521274906
 20
176.1909182495404
 30
0.0
 11
1317.643538861865
 21
176.1909182495404
 31
0.0
  0
LINE
  5
8782
330
860F
100
AcDbEntity
  8
标注
  6
Continuous
370
    -2
100
AcDbLine
 10
1311.692132288515
 20
166.1909383573768
 30
0.0
 11
1317.643538861865
 21
166.1909383573768
 31
0.0
  0
LINE
  5
8783
330
860F
100
AcDbEntity
  8
标注
  6
Continuous
370
    -2
100
AcDbLine
 10
1317.323538861865
 20
175.5409182495404
 30
0.0
 11
1317.323538861865
 21
172.0863921506619
 31
0.0
  0
LINE
  5
8784
330
860F
100
AcDbEntity
  8
标注
  6
Continuous
370
    -2
100
AcDbLine
 10
1317.323538861865
 20
166.8409383573768
 30
0.0
 11
1317.323538861865
 21
170.2954644562553
 31
0.0
  0
MTEXT
  5
8785
330
860F
100
AcDbEntity
  8
标注
100
AcDbMText
 10
1317.323538861865
 20
171.1909283034588
 30
0.0
 40
0.65
 41
0.0
 71
     5
 72
     1
  1
\A1;10"
 11
0.0000000000000001
 21
1.0
 31
0.0
 73
     1
 44
1.0
  0
SOLID
  5
8786
330
860F
100
AcDbEntity
  8
标注
100
AcDbTrace
 10
1317.215205528532
 20
175.5409182495404
 30
0.0
 11
1317.431872195199
 21
175.5409182495404
 31
0.0
 12
1317.323538861865
 22
176.1909182495404
 32
0.0
 13
1317.323538861865
 23
176.1909182495404
 33
0.0
  0
SOLID
  5
8787
330
860F
100
AcDbEntity
  8
标注
100
AcDbTrace
 10
1317.215205528532
 20
166.8409383573768
 30
0.0
 11
1317.431872195199
 21
166.8409383573768
 31
0.0
 12
1317.323538861865
 22
166.1909383573768
 32
0.0
 13
1317.323538861865
 23
166.1909383573768
 33
0.0
  0
POINT
  5
8788
330
860F
100
AcDbEntity
  8
DEFPOINTS
 62
     0
100
AcDbPoint
 10
1312.832521274906
 20
176.1909182495404
 30
0.0
  0
POINT
  5
8789
330
860F
100
AcDbEntity
  8
DEFPOINTS
 62
     0
100
AcDbPoint
 10
1310.812132288515
 20
166.1909383573768
 30
0.0
  0
POINT
  5
878A
330
860F
100
AcDbEntity
  8
DEFPOINTS
 62
     0
100
AcDbPoint
 10
1317.323538861865
 20
166.1909383573768
 30
0.0
  0
ENDBLK
  5
8611
330
860F
100
AcDbEntity
  8
0
100
AcDbBlockEnd
  0
BLOCK
  5
861E
330
861D
100
AcDbEntity
  8
0
100
AcDbBlockBegin
  2
*D1
 70
     1
 10
0.0
 20
0.0
 30
0.0
  3
*D1
  1

  0
LINE
  5
86DD
330
861D
100
AcDbEntity
  8
标注
 48
5.0
370
    -2
100
AcDbLine
 10
1312.37394127491
 20
153.4714879729567
 30
0.0
 11
1315.756089483383
 21
153.4714879729567
 31
0.0
  0
LINE
  5
86DE
330
861D
100
AcDbEntity
  8
标注
 48
5.0
370
    -2
100
AcDbLine
 10
1312.37394127491
 20
137.4715199729384
 30
0.0
 11
1315.756089483383
 21
137.4715199729384
 31
0.0
  0
LINE
  5
86DF
330
861D
100
AcDbEntity
  8
标注
 48
5.0
370
    -2
100
AcDbLine
 10
1315.436089483383
 20
152.8214879729567
 30
0.0
 11
1315.436089483383
 21
146.3669678201652
 31
0.0
  0
LINE
  5
86E0
330
861D
100
AcDbEntity
  8
标注
 48
5.0
370
    -2
100
AcDbLine
 10
1315.436089483383
 20
138.1215199729384
 30
0.0
 11
1315.436089483383
 21
144.5760401257587
 31
0.0
  0
MTEXT
  5
86E1
330
861D
100
AcDbEntity
  8
标注
 48
5.0
100
AcDbMText
 10
1315.436089483412
 20
145.4715039729621
 30
0.0
 40
0.65
 41
0.0
 71
     5
 72
     1
  1
\A1;16"
 11
0.0000000000000001
 21
1.0
 31
0.0
 73
     1
 44
1.0
  0
SOLID
  5
86E2
330
861D
100
AcDbEntity
  8
标注
 48
5.0
100
AcDbTrace
 10
1315.32775615005
 20
152.8214879729567
 30
0.0
 11
1315.544422816716
 21
152.8214879729567
 31
0.0
 12
1315.436089483383
 22
153.4714879729567
 32
0.0
 13
1315.436089483383
 23
153.4714879729567
 33
0.0
  0
SOLID
  5
86E3
330
861D
100
AcDbEntity
  8
标注
 48
5.0
100
AcDbTrace
 10
1315.32775615005
 20
138.1215199729384
 30
0.0
 11
1315.544422816716
 21
138.1215199729384
 31
0.0
 12
1315.436089483383
 22
137.4715199729384
 32
0.0
 13
1315.436089483383
 23
137.4715199729384
 33
0.0
  0
POINT
  5
86E4
330
861D
100
AcDbEntity
  8
DEFPOINTS
 62
     0
 48
5.0
100
AcDbPoint
 10
1311.49394127491
 20
153.4714879729567
 30
0.0
  0
POINT
  5
86E5
330
861D
100
AcDbEntity
  8
DEFPOINTS
 62
     0
 48
5.0
100
AcDbPoint
 10
1311.49394127491
 20
137.4715199729384
 30
0.0
  0
POINT
  5
86E6
330
861D
100
AcDbEntity
  8
DEFPOINTS
 62
     0
 48
5.0
100
AcDbPoint
 10
1315.436089483383
 20
137.4715199729384
 30
0.0
  0
ENDBLK
  5
861F
330
861D
100
AcDbEntity
  8
0
100
AcDbBlockEnd
  0
BLOCK
  5
862B
330
862A
100
AcDbEntity
  8
0
100
AcDbBlockBegin
  2
*D2
 70
     1
 10
0.0
 20
0.0
 30
0.0
  3
*D2
  1

  0
LINE
  5
8805
330
862A
100
AcDbEntity
  8
标注
 48
5.0
370
    -2
100
AcDbLine
 10
1295.993873849906
 20
136.5915199729385
 30
0.0
 11
1295.993873849906
 21
132.2002470845155
 31
0.0
  0
LINE
  5
8806
330
862A
100
AcDbEntity
  8
标注
 48
5.0
370
    -2
100
AcDbLine
 10
1281.493804424902
 20
136.5915199729385
 30
0.0
 11
1281.493804424902
 21
132.2002470845155
 31
0.0
  0
LINE
  5
8807
330
862A
100
AcDbEntity
  8
标注
 48
5.0
370
    -2
100
AcDbLine
 10
1295.343873849906
 20
132.5202470845155
 30
0.0
 11
1291.396599756776
 21
132.5202470845155
 31
0.0
  0
LINE
  5
8808
330
862A
100
AcDbEntity
  8
标注
 48
5.0
370
    -2
100
AcDbLine
 10
1282.143804424902
 20
132.5202470845155
 30
0.0
 11
1288.091074518031
 21
132.5202470845155
 31
0.0
  0
MTEXT
  5
8809
330
862A
100
AcDbEntity
  8
标注
 48
5.0
100
AcDbMText
 10
1289.743837137403
 20
132.5202470845155
 30
0.0
 40
0.65
 41
0.0
 71
     5
 72
     1
  1
\A1;14 1/2"
 73
     1
 44
1.0
  0
SOLID
  5
880A
330
862A
100
AcDbEntity
  8
标注
 48
5.0
100
AcDbTrace
 10
1295.343873849906
 20
132.6285804178488
 30
0.0
 11
1295.343873849906
 21
132.4119137511821
 31
0.0
 12
1295.993873849906
 22
132.5202470845155
 32
0.0
 13
1295.993873849906
 23
132.5202470845155
 33
0.0
  0
SOLID
  5
880B
330
862A
100
AcDbEntity
  8
标注
 48
5.0
100
AcDbTrace
 10
1282.143804424902
 20
132.6285804178488
 30
0.0
 11
1282.143804424902
 21
132.4119137511821
 31
0.0
 12
1281.493804424902
 22
132.5202470845155
 32
0.0
 13
1281.493804424902
 23
132.5202470845155
 33
0.0
  0
POINT
  5
880C
330
862A
100
AcDbEntity
  8
DEFPOINTS
 62
     0
 48
5.0
100
AcDbPoint
 10
1295.993873849906
 20
137.4715199729384
 30
0.0
  0
POINT
  5
880D
330
862A
100
AcDbEntity
  8
DEFPOINTS
 62
     0
 48
5.0
100
AcDbPoint
 10
1281.493804424902
 20
137.4715199729384
 30
0.0
  0
POINT
  5
880E
330
862A
100
AcDbEntity
  8
DEFPOINTS
 62
     0
 48
5.0
100
AcDbPoint
 10
1281.493804424902
 20
132.5202470845155
 30
0.0
  0
ENDBLK
  5
862C
330
862A
100
AcDbEntity
  8
0
100
AcDbBlockEnd
  0
BLOCK
  5
8638
330
8637
100
AcDbEntity
  8
0
100
AcDbBlockBegin
  2
*D3
 70
     1
 10
0.0
 20
0.0
 30
0.0
  3
*D3
  1

  0
LINE
  5
880F
330
8637
100
AcDbEntity
  8
标注
 48
5.0
370
    -2
100
AcDbLine
 10
1312.93094627491
 20
134.0915249729474
 30
0.0
 11
1312.93094627491
 21
130.4437306777841
 31
0.0
  0
LINE
  5
8810
330
8637
100
AcDbEntity
  8
标注
 48
5.0
370
    -2
100
AcDbLine
 10
1280.056799424916
 20
134.0915249729474
 30
0.0
 11
1280.056799424916
 21
130.4437306777841
 31
0.0
  0
LINE
  5
8811
330
8637
100
AcDbEntity
  8
标注
 48
5.0
370
    -2
100
AcDbLine
 10
1312.28094627491
 20
130.7637306777841
 30
0.0
 11
1298.177007229176
 21
130.7637306777841
 31
0.0
  0
LINE
  5
8812
330
8637
100
AcDbEntity
  8
标注
 48
5.0
370
    -2
100
AcDbLine
 10
1280.706799424916
 20
130.7637306777841
 30
0.0
 11
1294.81073847065
 21
130.7637306777841
 31
0.0
  0
MTEXT
  5
8813
330
8637
100
AcDbEntity
  8
标注
 48
5.0
100
AcDbMText
 10
1296.493872849913
 20
130.7637306777841
 30
0.0
 40
0.65
 41
0.0
 71
     5
 72
     1
  1
\A1;32 7/8"
 73
     1
 44
1.0
  0
SOLID
  5
8814
330
8637
100
AcDbEntity
  8
标注
 48
5.0
100
AcDbTrace
 10
1312.28094627491
 20
130.8720640111174
 30
0.0
 11
1312.28094627491
 21
130.6553973444508
 31
0.0
 12
1312.93094627491
 22
130.7637306777841
 32
0.0
 13
1312.93094627491
 23
130.7637306777841
 33
0.0
  0
SOLID
  5
8815
330
8637
100
AcDbEntity
  8
标注
 48
5.0
100
AcDbTrace
 10
1280.706799424916
 20
130.8720640111174
 30
0.0
 11
1280.706799424916
 21
130.6553973444508
 31
0.0
 12
1280.056799424916
 22
130.7637306777841
 32
0.0
 13
1280.056799424916
 23
130.7637306777841
 33
0.0
  0
POINT
  5
8816
330
8637
100
AcDbEntity
  8
DEFPOINTS
 62
     0
 48
5.0
100
AcDbPoint
 10
1312.93094627491
 20
134.9715249729474
 30
0.0
  0
POINT
  5
8817
330
8637
100
AcDbEntity
  8
DEFPOINTS
 62
     0
 48
5.0
100
AcDbPoint
 10
1280.056799424916
 20
134.9715249729474
 30
0.0
  0
POINT
  5
8818
330
8637
100
AcDbEntity
  8
DEFPOINTS
 62
     0
 48
5.0
100
AcDbPoint
 10
1280.056799424916
 20
130.7637306777841
 30
0.0
  0
ENDBLK
  5
8639
330
8637
100
AcDbEntity
  8
0
100
AcDbBlockEnd
  0
BLOCK
  5
8645
330
8644
100
AcDbEntity
  8
0
100
AcDbBlockBegin
  2
*D4
 70
     1
 10
0.0
 20
0.0
 30
0.0
  3
*D4
  1

  0
LINE
  5
876D
330
8644
100
AcDbEntity
  8
标注
  6
Continuous
370
    -2
100
AcDbLine
 10
1313.81094627491
 20
154.9714849729339
 30
0.0
 11
1319.500571694496
 21
154.9714849729339
 31
0.0
  0
LINE
  5
876E
330
8644
100
AcDbEntity
  8
标注
  6
Continuous
370
    -2
100
AcDbLine
 10
1297.373872849913
 20
134.2215264729588
 30
0.0
 11
1319.500571694496
 21
134.2215264729588
 31
0.0
  0
LINE
  5
876F
330
8644
100
AcDbEntity
  8
标注
  6
Continuous
370
    -2
100
AcDbLine
 10
1319.180571694497
 20
154.3214849729339
 30
0.0
 11
1319.180571694497
 21
146.2854040858675
 31
0.0
  0
LINE
  5
8770
330
8644
100
AcDbEntity
  8
标注
  6
Continuous
370
    -2
100
AcDbLine
 10
1319.180571694497
 20
134.8715264729588
 30
0.0
 11
1319.180571694497
 21
142.907607360083
 31
0.0
  0
MTEXT
  5
8771
330
8644
100
AcDbEntity
  8
标注
100
AcDbMText
 10
1319.180571694526
 20
144.5965057229755
 30
0.0
 40
0.65
 41
0.0
 71
     5
 72
     1
  1
\A1;20 3/4"
 11
0.0000000000000001
 21
1.0
 31
0.0
 73
     1
 44
1.0
  0
SOLID
  5
8772
330
8644
100
AcDbEntity
  8
标注
100
AcDbTrace
 10
1319.072238361163
 20
154.3214849729339
 30
0.0
 11
1319.28890502783
 21
154.3214849729339
 31
0.0
 12
1319.180571694497
 22
154.9714849729339
 32
0.0
 13
1319.180571694497
 23
154.9714849729339
 33
0.0
  0
SOLID
  5
8773
330
8644
100
AcDbEntity
  8
标注
100
AcDbTrace
 10
1319.072238361163
 20
134.8715264729588
 30
0.0
 11
1319.28890502783
 21
134.8715264729588
 31
0.0
 12
1319.180571694497
 22
134.2215264729588
 32
0.0
 13
1319.180571694497
 23
134.2215264729588
 33
0.0
  0
POINT
  5
8774
330
8644
100
AcDbEntity
  8
DEFPOINTS
 62
     0
100
AcDbPoint
 10
1312.93094627491
 20
154.9714849729339
 30
0.0
  0
POINT
  5
8775
330
8644
100
AcDbEntity
  8
DEFPOINTS
 62
     0
100
AcDbPoint
 10
1296.493872849913
 20
134.2215264729588
 30
0.0
  0
POINT
  5
8776
330
8644
100
AcDbEntity
  8
DEFPOINTS
 62
     0
100
AcDbPoint
 10
1319.180571694497
 20
134.2215264729588
 30
0.0
  0
ENDBLK
  5
8646
330
8644
100
AcDbEntity
  8
0
100
AcDbBlockEnd
  0
BLOCK
  5
8652
330
8651
100
AcDbEntity
  8
0
100
AcDbBlockBegin
  2
*D5
 70
     1
 10
0.0
 20
0.0
 30
0.0
  3
*D5
  1

  0
LINE
  5
8777
330
8651
100
AcDbEntity
  8
标注
  6
Continuous
370
    -2
100
AcDbLine
 10
1313.712521274906
 20
176.1909182495404
 30
0.0
 11
1315.710350809861
 21
176.1909182495404
 31
0.0
  0
LINE
  5
8778
330
8651
100
AcDbEntity
  8
标注
  6
Continuous
370
    -2
100
AcDbLine
 10
1313.712521274906
 20
167.1909362495319
 30
0.0
 11
1315.710350809861
 21
167.1909362495319
 31
0.0
  0
LINE
  5
8779
330
8651
100
AcDbEntity
  8
标注
  6
Continuous
370
    -2
100
AcDbLine
 10
1315.390350809861
 20
175.5409182495404
 30
0.0
 11
1315.390350809861
 21
172.3644777270259
 31
0.0
  0
LINE
  5
877A
330
8651
100
AcDbEntity
  8
标注
  6
Continuous
370
    -2
100
AcDbLine
 10
1315.390350809861
 20
167.8409362495319
 30
0.0
 11
1315.390350809861
 21
171.0173767720464
 31
0.0
  0
SOLID
  5
877B
330
8651
100
AcDbEntity
  8
标注
100
AcDbTrace
 10
1315.282017476528
 20
175.5409182495404
 30
0.0
 11
1315.498684143195
 21
175.5409182495404
 31
0.0
 12
1315.390350809861
 22
176.1909182495404
 32
0.0
 13
1315.390350809861
 23
176.1909182495404
 33
0.0
  0
SOLID
  5
877C
330
8651
100
AcDbEntity
  8
标注
100
AcDbTrace
 10
1315.282017476528
 20
167.8409362495319
 30
0.0
 11
1315.498684143195
 21
167.8409362495319
 31
0.0
 12
1315.390350809861
 22
167.1909362495319
 32
0.0
 13
1315.390350809861
 23
167.1909362495319
 33
0.0
  0
MTEXT
  5
877D
330
8651
100
AcDbEntity
  8
标注
100
AcDbMText
 10
1315.390350809861
 20
171.6909272495364
 30
0.0
 40
0.65
 41
0.0
 71
     5
 72
     1
  1
\A1;9"
 11
0.0000000000000001
 21
1.0
 31
0.0
 73
     1
 44
1.0
  0
POINT
  5
877E
330
8651
100
AcDbEntity
  8
DEFPOINTS
 62
     0
100
AcDbPoint
 10
1312.832521274906
 20
176.1909182495404
 30
0.0
  0
POINT
  5
877F
330
8651
100
AcDbEntity
  8
DEFPOINTS
 62
     0
100
AcDbPoint
 10
1312.832521274906
 20
167.1909362495319
 30
0.0
  0
POINT
  5
8780
330
8651
100
AcDbEntity
  8
DEFPOINTS
 62
     0
100
AcDbPoint
 10
1315.390350809861
 20
167.1909362495319
 30
0.0
  0
ENDBLK
  5
8653
330
8651
100
AcDbEntity
  8
0
100
AcDbBlockEnd
  0
BLOCK
  5
8660
330
865F
100
AcDbEntity
  8
0
100
AcDbBlockBegin
  2
*D6
 70
     1
 10
0.0
 20
0.0
 30
0.0
  3
*D6
  1

  0
LINE
  5
8819
330
865F
100
AcDbEntity
  8
标注线
 48
5.0
370
    -2
100
AcDbLine
 10
1312.493103582672
 20
115.8323676398272
 30
0.0
 11
1315.202277365724
 21
115.8323676398272
 31
0.0
  0
LINE
  5
881A
330
865F
100
AcDbEntity
  8
标注线
 48
5.0
370
    -2
100
AcDbLine
 10
1312.493103582672
 20
97.13240515890214
 30
0.0
 11
1315.202277365724
 21
97.13240515890214
 31
0.0
  0
LINE
  5
881B
330
865F
100
AcDbEntity
  8
标注线
 48
5.0
370
    -2
100
AcDbLine
 10
1314.882277365724
 20
115.1823676398272
 30
0.0
 11
1314.882277365724
 21
108.1351490187371
 31
0.0
  0
LINE
  5
881C
330
865F
100
AcDbEntity
  8
标注线
 48
5.0
370
    -2
100
AcDbLine
 10
1314.882277365724
 20
97.78240515890216
 30
0.0
 11
1314.882277365724
 21
104.8296237799922
 31
0.0
  0
SOLID
  5
881D
330
865F
100
AcDbEntity
  8
标注线
 48
5.0
100
AcDbTrace
 10
1314.773944032391
 20
115.1823676398272
 30
0.0
 11
1314.990610699058
 21
115.1823676398272
 31
0.0
 12
1314.882277365724
 22
115.8323676398272
 32
0.0
 13
1314.882277365724
 23
115.8323676398272
 33
0.0
  0
SOLID
  5
881E
330
865F
100
AcDbEntity
  8
标注线
 48
5.0
100
AcDbTrace
 10
1314.773944032391
 20
97.78240515890216
 30
0.0
 11
1314.990610699058
 21
97.78240515890216
 31
0.0
 12
1314.882277365724
 22
97.13240515890214
 32
0.0
 13
1314.882277365724
 23
97.13240515890214
 33
0.0
  0
MTEXT
  5
881F
330
865F
100
AcDbEntity
  8
标注线
 48
5.0
100
AcDbMText
 10
1314.882277365724
 20
106.4823863993649
 30
0.0
 40
0.65
 41
0.0
 71
     5
 72
     1
  1
\A1;18 3/4"
 11
0.0000000000000001
 21
1.0
 31
0.0
 73
     1
 44
1.0
  0
POINT
  5
8820
330
865F
100
AcDbEntity
  8
DEFPOINTS
 62
     0
 48
5.0
100
AcDbPoint
 10
1311.613103582671
 20
115.8323676398272
 30
0.0
  0
POINT
  5
8821
330
865F
100
AcDbEntity
  8
DEFPOINTS
 62
     0
 48
5.0
100
AcDbPoint
 10
1311.613103582671
 20
97.1324051589022
 30
0.0
  0
POINT
  5
8822
330
865F
100
AcDbEntity
  8
DEFPOINTS
 62
     0
 48
5.0
100
AcDbPoint
 10
1314.882277365724
 20
97.13240515890214
 30
0.0
  0
ENDBLK
  5
8661
330
865F
100
AcDbEntity
  8
0
100
AcDbBlockEnd
  0
BLOCK
  5
8678
330
8677
100
AcDbEntity
  8
0
100
AcDbBlockBegin
  2
*D7
 70
     1
 10
0.0
 20
0.0
 30
0.0
  3
*D7
  1

  0
LINE
  5
87DA
330
8677
100
AcDbEntity
  8
标注
  6
Continuous
370
    -2
100
AcDbLine
 10
1279.275224424905
 20
176.1909182495404
 30
0.0
 11
1277.569130957598
 21
176.1909182495404
 31
0.0
  0
LINE
  5
87DB
330
8677
100
AcDbEntity
  8
标注
  6
Continuous
370
    -2
100
AcDbLine
 10
1279.297730332591
 20
166.1907074628655
 30
0.0
 11
1277.569130957598
 21
166.1907074628655
 31
0.0
  0
LINE
  5
87DC
330
8677
100
AcDbEntity
  8
标注
  6
Continuous
370
    -2
100
AcDbLine
 10
1277.889130957598
 20
175.5409182495404
 30
0.0
 11
1277.889130957598
 21
172.0862767034062
 31
0.0
  0
LINE
  5
87DD
330
8677
100
AcDbEntity
  8
标注
  6
Continuous
370
    -2
100
AcDbLine
 10
1277.889130957598
 20
166.8407074628655
 30
0.0
 11
1277.889130957598
 21
170.2953490089997
 31
0.0
  0
SOLID
  5
87DE
330
8677
100
AcDbEntity
  8
标注
100
AcDbTrace
 10
1277.780797624264
 20
175.5409182495404
 30
0.0
 11
1277.997464290931
 21
175.5409182495404
 31
0.0
 12
1277.889130957598
 22
176.1909182495404
 32
0.0
 13
1277.889130957598
 23
176.1909182495404
 33
0.0
  0
SOLID
  5
87DF
330
8677
100
AcDbEntity
  8
标注
100
AcDbTrace
 10
1277.780797624264
 20
166.8407074628655
 30
0.0
 11
1277.997464290931
 21
166.8407074628655
 31
0.0
 12
1277.889130957598
 22
166.1907074628655
 32
0.0
 13
1277.889130957598
 23
166.1907074628655
 33
0.0
  0
MTEXT
  5
87E0
330
8677
100
AcDbEntity
  8
标注
100
AcDbMText
 10
1277.889130957598
 20
171.1908128562031
 30
0.0
 40
0.65
 41
0.0
 71
     5
 72
     1
  1
\A1;10"
 11
0.0000000000000001
 21
1.0
 31
0.0
 73
     1
 44
1.0
  0
POINT
  5
87E1
330
8677
100
AcDbEntity
  8
DEFPOINTS
 62
     0
100
AcDbPoint
 10
1280.155224424905
 20
176.1909182495404
 30
0.0
  0
POINT
  5
87E2
330
8677
100
AcDbEntity
  8
DEFPOINTS
 62
     0
100
AcDbPoint
 10
1280.177730332592
 20
166.1907074628655
 30
0.0
  0
POINT
  5
87E3
330
8677
100
AcDbEntity
  8
DEFPOINTS
 62
     0
100
AcDbPoint
 10
1277.889130957598
 20
166.1907074628655
 30
0.0
  0
ENDBLK
  5
8679
330
8677
100
AcDbEntity
  8
0
100
AcDbBlockEnd
  0
BLOCK
  5
8686
330
8685
100
AcDbEntity
  8
0
100
AcDbBlockBegin
  2
*D8
 70
     1
 10
0.0
 20
0.0
 30
0.0
  3
*D8
  1

  0
LINE
  5
8823
330
8685
100
AcDbEntity
  8
标注线
 48
5.0
370
    -2
100
AcDbLine
 10
1281.455486732668
 20
96.25240515890221
 30
0.0
 11
1281.455486732668
 21
93.66529880235772
 31
0.0
  0
LINE
  5
8824
330
8685
100
AcDbEntity
  8
标注线
 48
5.0
370
    -2
100
AcDbLine
 10
1311.613103582671
 20
96.25240515890221
 30
0.0
 11
1311.613103582671
 21
93.66529880235772
 31
0.0
  0
LINE
  5
8825
330
8685
100
AcDbEntity
  8
标注线
 48
5.0
370
    -2
100
AcDbLine
 10
1282.105486732668
 20
93.98529880235768
 30
0.0
 11
1294.851160778407
 21
93.98529880235768
 31
0.0
  0
LINE
  5
8826
330
8685
100
AcDbEntity
  8
标注线
 48
5.0
370
    -2
100
AcDbLine
 10
1310.963103582671
 20
93.98529880235768
 30
0.0
 11
1298.217429536933
 21
93.98529880235768
 31
0.0
  0
SOLID
  5
8827
330
8685
100
AcDbEntity
  8
标注线
 48
5.0
100
AcDbTrace
 10
1282.105486732668
 20
94.09363213569099
 30
0.0
 11
1282.105486732668
 21
93.87696546902436
 31
0.0
 12
1281.455486732668
 22
93.98529880235768
 32
0.0
 13
1281.455486732668
 23
93.98529880235768
 33
0.0
  0
SOLID
  5
8828
330
8685
100
AcDbEntity
  8
标注线
 48
5.0
100
AcDbTrace
 10
1310.963103582671
 20
94.09363213569099
 30
0.0
 11
1310.963103582671
 21
93.87696546902436
 31
0.0
 12
1311.613103582671
 22
93.98529880235768
 32
0.0
 13
1311.613103582671
 23
93.98529880235768
 33
0.0
  0
MTEXT
  5
8829
330
8685
100
AcDbEntity
  8
标注线
 48
5.0
100
AcDbMText
 10
1296.53429515767
 20
93.98529880235768
 30
0.0
 40
0.65
 41
0.0
 71
     5
 72
     1
  1
\A1;30 1/8"
 73
     1
 44
1.0
  0
POINT
  5
882A
330
8685
100
AcDbEntity
  8
DEFPOINTS
 62
     0
 48
5.0
100
AcDbPoint
 10
1281.455486732668
 20
97.1324051589022
 30
0.0
  0
POINT
  5
882B
330
8685
100
AcDbEntity
  8
DEFPOINTS
 62
     0
 48
5.0
100
AcDbPoint
 10
1311.613103582671
 20
97.1324051589022
 30
0.0
  0
POINT
  5
882C
330
8685
100
AcDbEntity
  8
DEFPOINTS
 62
     0
 48
5.0
100
AcDbPoint
 10
1311.613103582671
 20
93.98529880235768
 30
0.0
  0
ENDBLK
  5
8687
330
8685
100
AcDbEntity
  8
0
100
AcDbBlockEnd
  0
BLOCK
  5
86BB
330
86BA
100
AcDbEntity
  8
0
100
AcDbBlockBegin
  2
*D9
 70
     1
 10
0.0
 20
0.0
 30
0.0
  3
*D9
  1

  0
LINE
  5
87FB
330
86BA
100
AcDbEntity
  8
标注线
 48
5.0
370
    -2
100
AcDbLine
 10
1296.993871849905
 20
136.5915199729385
 30
0.0
 11
1296.993871849905
 21
132.2002470845155
 31
0.0
  0
LINE
  5
87FC
330
86BA
100
AcDbEntity
  8
标注线
 48
5.0
370
    -2
100
AcDbLine
 10
1311.49394127491
 20
136.5915199729385
 30
0.0
 11
1311.49394127491
 21
132.2002470845155
 31
0.0
  0
LINE
  5
87FD
330
86BA
100
AcDbEntity
  8
标注线
 48
5.0
370
    -2
100
AcDbLine
 10
1297.643871849906
 20
132.5202470845155
 30
0.0
 11
1302.591143943035
 21
132.5202470845155
 31
0.0
  0
LINE
  5
87FE
330
86BA
100
AcDbEntity
  8
标注线
 48
5.0
370
    -2
100
AcDbLine
 10
1310.84394127491
 20
132.5202470845155
 30
0.0
 11
1305.89666918178
 21
132.5202470845155
 31
0.0
  0
SOLID
  5
87FF
330
86BA
100
AcDbEntity
  8
标注线
 48
5.0
100
AcDbTrace
 10
1297.643871849906
 20
132.6285804178488
 30
0.0
 11
1297.643871849906
 21
132.4119137511821
 31
0.0
 12
1296.993871849905
 22
132.5202470845155
 32
0.0
 13
1296.993871849905
 23
132.5202470845155
 33
0.0
  0
SOLID
  5
8800
330
86BA
100
AcDbEntity
  8
标注线
 48
5.0
100
AcDbTrace
 10
1310.84394127491
 20
132.6285804178488
 30
0.0
 11
1310.84394127491
 21
132.4119137511821
 31
0.0
 12
1311.49394127491
 22
132.5202470845155
 32
0.0
 13
1311.49394127491
 23
132.5202470845155
 33
0.0
  0
MTEXT
  5
8801
330
86BA
100
AcDbEntity
  8
标注线
 48
5.0
100
AcDbMText
 10
1304.243906562408
 20
132.5202470845155
 30
0.0
 40
0.65
 41
0.0
 71
     5
 72
     1
  1
\A1;14 1/2"
 73
     1
 44
1.0
  0
POINT
  5
8802
330
86BA
100
AcDbEntity
  8
DEFPOINTS
 62
     0
 48
5.0
100
AcDbPoint
 10
1296.993871849905
 20
137.4715199729384
 30
0.0
  0
POINT
  5
8803
330
86BA
100
AcDbEntity
  8
DEFPOINTS
 62
     0
 48
5.0
100
AcDbPoint
 10
1311.49394127491
 20
137.4715199729384
 30
0.0
  0
POINT
  5
8804
330
86BA
100
AcDbEntity
  8
DEFPOINTS
 62
     0
 48
5.0
100
AcDbPoint
 10
1311.49394127491
 20
132.5202470845155
 30
0.0
  0
ENDBLK
  5
86BC
330
86BA
100
AcDbEntity
  8
0
100
AcDbBlockEnd
  0
BLOCK
  5
8969
330
8968
100
AcDbEntity
  8
0
100
AcDbBlockBegin
  2
*D10
 70
     1
 10
0.0
 20
0.0
 30
0.0
  3
*D10
  1

  0
LINE
  5
8C57
330
8968
100
AcDbEntity
  8
标注线
 48
5.0
370
    -2
100
AcDbLine
 10
1316.545643919706
 20
-323.9969120071253
 30
0.0
 11
1316.545643919706
 21
-326.8793345355717
 31
0.0
  0
LINE
  5
8C58
330
8968
100
AcDbEntity
  8
标注线
 48
5.0
370
    -2
100
AcDbLine
 10
1346.545583919596
 20
-323.9969120071253
 30
0.0
 11
1346.545583919596
 21
-326.8793345355717
 31
0.0
  0
LINE
  5
8C59
330
8968
100
AcDbEntity
  8
标注线
 48
5.0
370
    -2
100
AcDbLine
 10
1317.195643919707
 20
-326.5593345355717
 30
0.0
 11
1330.619778312556
 21
-326.5593345355717
 31
0.0
  0
LINE
  5
8C5A
330
8968
100
AcDbEntity
  8
标注线
 48
5.0
370
    -2
100
AcDbLine
 10
1345.895583919596
 20
-326.5593345355717
 30
0.0
 11
1332.471449526744
 21
-326.5593345355717
 31
0.0
  0
MTEXT
  5
8C5B
330
8968
100
AcDbEntity
  8
标注线
 48
5.0
100
AcDbMText
 10
1331.54561391965
 20
-326.5593345355717
 30
0.0
 40
0.65
 41
0.0
 71
     5
 72
     1
  1
\A1;30"
 73
     1
 44
1.0
  0
SOLID
  5
8C5C
330
8968
100
AcDbEntity
  8
标注线
 48
5.0
100
AcDbTrace
 10
1317.195643919707
 20
-326.4510012022384
 30
0.0
 11
1317.195643919707
 21
-326.667667868905
 31
0.0
 12
1316.545643919706
 22
-326.5593345355717
 32
0.0
 13
1316.545643919706
 23
-326.5593345355717
 33
0.0
  0
SOLID
  5
8C5D
330
8968
100
AcDbEntity
  8
标注线
 48
5.0
100
AcDbTrace
 10
1345.895583919596
 20
-326.4510012022384
 30
0.0
 11
1345.895583919596
 21
-326.667667868905
 31
0.0
 12
1346.545583919596
 22
-326.5593345355717
 32
0.0
 13
1346.545583919596
 23
-326.5593345355717
 33
0.0
  0
POINT
  5
8C5E
330
8968
100
AcDbEntity
  8
DEFPOINTS
 62
     0
 48
5.0
100
AcDbPoint
 10
1316.545643919706
 20
-323.1169120071253
 30
0.0
  0
POINT
  5
8C5F
330
8968
100
AcDbEntity
  8
DEFPOINTS
 62
     0
 48
5.0
100
AcDbPoint
 10
1346.545583919596
 20
-323.1169120071253
 30
0.0
  0
POINT
  5
8C60
330
8968
100
AcDbEntity
  8
DEFPOINTS
 62
     0
 48
5.0
100
AcDbPoint
 10
1346.545583919596
 20
-326.5593345355717
 30
0.0
  0
ENDBLK
  5
896A
330
8968
100
AcDbEntity
  8
0
100
AcDbBlockEnd
  0
BLOCK
  5
8976
330
8975
100
AcDbEntity
  8
0
100
AcDbBlockBegin
  2
*D11
 70
     1
 10
0.0
 20
0.0
 30
0.0
  3
*D11
  1

  0
LINE
  5
8C61
330
8975
100
AcDbEntity
  8
标注线
 48
5.0
370
    -2
100
AcDbLine
 10
1347.819283919594
 20
-304.7232480071959
 30
0.0
 11
1351.164524844738
 21
-304.7232480071959
 31
0.0
  0
LINE
  5
8C62
330
8975
100
AcDbEntity
  8
标注线
 48
5.0
370
    -2
100
AcDbLine
 10
1347.819283919594
 20
-322.7232120071263
 30
0.0
 11
1351.164524844738
 21
-322.7232120071263
 31
0.0
  0
LINE
  5
8C63
330
8975
100
AcDbEntity
  8
标注线
 48
5.0
370
    -2
100
AcDbLine
 10
1350.844524844738
 20
-305.3732480071959
 30
0.0
 11
1350.844524844738
 21
-312.8277661599363
 31
0.0
  0
LINE
  5
8C64
330
8975
100
AcDbEntity
  8
标注线
 48
5.0
370
    -2
100
AcDbLine
 10
1350.844524844738
 20
-322.0732120071263
 30
0.0
 11
1350.844524844738
 21
-314.6186938543428
 31
0.0
  0
MTEXT
  5
8C65
330
8975
100
AcDbEntity
  8
标注线
 48
5.0
100
AcDbMText
 10
1350.844524844753
 20
-313.7232300071393
 30
0.0
 40
0.65
 41
0.0
 71
     5
 72
     1
  1
\A1;18"
 11
0.0000000000000001
 21
1.0
 31
0.0
 73
     1
 44
1.0
  0
SOLID
  5
8C66
330
8975
100
AcDbEntity
  8
标注线
 48
5.0
100
AcDbTrace
 10
1350.736191511405
 20
-305.3732480071959
 30
0.0
 11
1350.952858178072
 21
-305.3732480071959
 31
0.0
 12
1350.844524844738
 22
-304.7232480071959
 32
0.0
 13
1350.844524844738
 23
-304.7232480071959
 33
0.0
  0
SOLID
  5
8C67
330
8975
100
AcDbEntity
  8
标注线
 48
5.0
100
AcDbTrace
 10
1350.736191511405
 20
-322.0732120071263
 30
0.0
 11
1350.952858178072
 21
-322.0732120071263
 31
0.0
 12
1350.844524844738
 22
-322.7232120071263
 32
0.0
 13
1350.844524844738
 23
-322.7232120071263
 33
0.0
  0
POINT
  5
8C68
330
8975
100
AcDbEntity
  8
DEFPOINTS
 62
     0
 48
5.0
100
AcDbPoint
 10
1346.939283919594
 20
-304.7232480071959
 30
0.0
  0
POINT
  5
8C69
330
8975
100
AcDbEntity
  8
DEFPOINTS
 62
     0
 48
5.0
100
AcDbPoint
 10
1346.939283919594
 20
-322.7232120071263
 30
0.0
  0
POINT
  5
8C6A
330
8975
100
AcDbEntity
  8
DEFPOINTS
 62
     0
 48
5.0
100
AcDbPoint
 10
1350.844524844738
 20
-322.7232120071263
 30
0.0
  0
ENDBLK
  5
8977
330
8975
100
AcDbEntity
  8
0
100
AcDbBlockEnd
  0
BLOCK
  5
8983
330
8982
100
AcDbEntity
  8
0
100
AcDbBlockBegin
  2
*D12
 70
     1
 10
0.0
 20
0.0
 30
0.0
  3
*D12
  1

  0
LINE
  5
8C6B
330
8982
100
AcDbEntity
  8
标注线
 48
5.0
370
    -2
100
AcDbLine
 10
1347.819283919594
 20
-305.7232460071913
 30
0.0
 11
1349.154083919574
 21
-305.7232460071913
 31
0.0
  0
LINE
  5
8C6C
330
8982
100
AcDbEntity
  8
标注线
 48
5.0
370
    -2
100
AcDbLine
 10
1347.819283919594
 20
-321.7232140071311
 30
0.0
 11
1349.154083919574
 21
-321.7232140071311
 31
0.0
  0
LINE
  5
8C6D
330
8982
100
AcDbEntity
  8
标注线
 48
5.0
370
    -2
100
AcDbLine
 10
1348.834083919574
 20
-306.3732460071913
 30
0.0
 11
1348.834083919574
 21
-312.8277661599363
 31
0.0
  0
LINE
  5
8C6E
330
8982
100
AcDbEntity
  8
标注线
 48
5.0
370
    -2
100
AcDbLine
 10
1348.834083919574
 20
-321.0732140071311
 30
0.0
 11
1348.834083919574
 21
-314.6186938543428
 31
0.0
  0
MTEXT
  5
8C6F
330
8982
100
AcDbEntity
  8
标注线
 48
5.0
100
AcDbMText
 10
1348.834083919589
 20
-313.7232300071393
 30
0.0
 40
0.65
 41
0.0
 71
     5
 72
     1
  1
\A1;16"
 11
0.0000000000000001
 21
1.0
 31
0.0
 73
     1
 44
1.0
  0
SOLID
  5
8C70
330
8982
100
AcDbEntity
  8
标注线
 48
5.0
100
AcDbTrace
 10
1348.725750586241
 20
-306.3732460071913
 30
0.0
 11
1348.942417252907
 21
-306.3732460071913
 31
0.0
 12
1348.834083919574
 22
-305.7232460071913
 32
0.0
 13
1348.834083919574
 23
-305.7232460071913
 33
0.0
  0
SOLID
  5
8C71
330
8982
100
AcDbEntity
  8
标注线
 48
5.0
100
AcDbTrace
 10
1348.725750586241
 20
-321.0732140071311
 30
0.0
 11
1348.942417252907
 21
-321.0732140071311
 31
0.0
 12
1348.834083919574
 22
-321.7232140071311
 32
0.0
 13
1348.834083919574
 23
-321.7232140071311
 33
0.0
  0
POINT
  5
8C72
330
8982
100
AcDbEntity
  8
DEFPOINTS
 62
     0
 48
5.0
100
AcDbPoint
 10
1346.939283919594
 20
-305.7232460071913
 30
0.0
  0
POINT
  5
8C73
330
8982
100
AcDbEntity
  8
DEFPOINTS
 62
     0
 48
5.0
100
AcDbPoint
 10
1346.939283919594
 20
-321.7232140071311
 30
0.0
  0
POINT
  5
8C74
330
8982
100
AcDbEntity
  8
DEFPOINTS
 62
     0
 48
5.0
100
AcDbPoint
 10
1348.834083919574
 20
-321.7232140071311
 30
0.0
  0
ENDBLK
  5
8984
330
8982
100
AcDbEntity
  8
0
100
AcDbBlockEnd
  0
BLOCK
  5
8990
330
898F
100
AcDbEntity
  8
0
100
AcDbBlockBegin
  2
*D13
 70
     1
 10
0.0
 20
0.0
 30
0.0
  3
*D13
  1

  0
LINE
  5
8C75
330
898F
100
AcDbEntity
  8
标注线
 48
5.0
370
    -2
100
AcDbLine
 10
1317.545641919702
 20
-323.9969120071253
 30
0.0
 11
1317.545641919702
 21
-325.0117120071212
 31
0.0
  0
LINE
  5
8C76
330
898F
100
AcDbEntity
  8
标注线
 48
5.0
370
    -2
100
AcDbLine
 10
1345.5455859196
 20
-323.9969120071253
 30
0.0
 11
1345.5455859196
 21
-325.0117120071212
 31
0.0
  0
LINE
  5
8C77
330
898F
100
AcDbEntity
  8
标注线
 48
5.0
370
    -2
100
AcDbLine
 10
1318.195641919702
 20
-324.6917120071212
 30
0.0
 11
1330.614014328928
 21
-324.6917120071212
 31
0.0
  0
LINE
  5
8C78
330
898F
100
AcDbEntity
  8
标注线
 48
5.0
370
    -2
100
AcDbLine
 10
1344.8955859196
 20
-324.6917120071212
 30
0.0
 11
1332.477213510373
 21
-324.6917120071212
 31
0.0
  0
SOLID
  5
8C79
330
898F
100
AcDbEntity
  8
标注线
 48
5.0
100
AcDbTrace
 10
1318.195641919702
 20
-324.5833786737878
 30
0.0
 11
1318.195641919702
 21
-324.8000453404545
 31
0.0
 12
1317.545641919702
 22
-324.6917120071212
 32
0.0
 13
1317.545641919702
 23
-324.6917120071212
 33
0.0
  0
SOLID
  5
8C7A
330
898F
100
AcDbEntity
  8
标注线
 48
5.0
100
AcDbTrace
 10
1344.8955859196
 20
-324.5833786737878
 30
0.0
 11
1344.8955859196
 21
-324.8000453404545
 31
0.0
 12
1345.5455859196
 22
-324.6917120071212
 32
0.0
 13
1345.5455859196
 23
-324.6917120071212
 33
0.0
  0
MTEXT
  5
8C7B
330
898F
100
AcDbEntity
  8
标注线
 48
5.0
100
AcDbMText
 10
1331.545613919651
 20
-324.6917120071212
 30
0.0
 40
0.65
 41
0.0
 71
     5
 72
     1
  1
\A1;28"
 73
     1
 44
1.0
  0
POINT
  5
8C7C
330
898F
100
AcDbEntity
  8
DEFPOINTS
 62
     0
 48
5.0
100
AcDbPoint
 10
1317.545641919702
 20
-323.1169120071253
 30
0.0
  0
POINT
  5
8C7D
330
898F
100
AcDbEntity
  8
DEFPOINTS
 62
     0
 48
5.0
100
AcDbPoint
 10
1345.5455859196
 20
-323.1169120071253
 30
0.0
  0
POINT
  5
8C7E
330
898F
100
AcDbEntity
  8
DEFPOINTS
 62
     0
 48
5.0
100
AcDbPoint
 10
1345.5455859196
 20
-324.6917120071212
 30
0.0
  0
ENDBLK
  5
8991
330
898F
100
AcDbEntity
  8
0
100
AcDbBlockEnd
  0
BLOCK
  5
89C5
330
89C4
100
AcDbEntity
  8
0
100
AcDbBlockBegin
  2
*D14
 70
     1
 10
0.0
 20
0.0
 30
0.0
  3
*D14
  1

  0
LINE
  5
8C7F
330
89C4
100
AcDbEntity
  8
标注线
 48
5.0
370
    -2
100
AcDbLine
 10
1317.545641919702
 20
-358.9953098027578
 30
0.0
 11
1317.545641919702
 21
-360.7922961187855
 31
0.0
  0
LINE
  5
8C80
330
89C4
100
AcDbEntity
  8
标注线
 48
5.0
370
    -2
100
AcDbLine
 10
1345.703065919594
 20
-358.9953098027578
 30
0.0
 11
1345.703065919594
 21
-360.7922961187855
 31
0.0
  0
LINE
  5
8C81
330
89C4
100
AcDbEntity
  8
标注线
 48
5.0
370
    -2
100
AcDbLine
 10
1318.195641919702
 20
-360.4722961187856
 30
0.0
 11
1329.935455556755
 21
-360.4722961187856
 31
0.0
  0
LINE
  5
8C82
330
89C4
100
AcDbEntity
  8
标注线
 48
5.0
370
    -2
100
AcDbLine
 10
1345.053065919594
 20
-360.4722961187856
 30
0.0
 11
1333.31325228254
 21
-360.4722961187856
 31
0.0
  0
SOLID
  5
8C83
330
89C4
100
AcDbEntity
  8
标注线
 48
5.0
100
AcDbTrace
 10
1318.195641919702
 20
-360.3639627854522
 30
0.0
 11
1318.195641919702
 21
-360.5806294521189
 31
0.0
 12
1317.545641919702
 22
-360.4722961187856
 32
0.0
 13
1317.545641919702
 23
-360.4722961187856
 33
0.0
  0
SOLID
  5
8C84
330
89C4
100
AcDbEntity
  8
标注线
 48
5.0
100
AcDbTrace
 10
1345.053065919594
 20
-360.3639627854522
 30
0.0
 11
1345.053065919594
 21
-360.5806294521189
 31
0.0
 12
1345.703065919594
 22
-360.4722961187856
 32
0.0
 13
1345.703065919594
 23
-360.4722961187856
 33
0.0
  0
MTEXT
  5
8C85
330
89C4
100
AcDbEntity
  8
标注线
 48
5.0
100
AcDbMText
 10
1331.624353919648
 20
-360.4722961187856
 30
0.0
 40
0.65
 41
0.0
 71
     5
 72
     1
  1
\A1;28 1/8"
 73
     1
 44
1.0
  0
POINT
  5
8C86
330
89C4
100
AcDbEntity
  8
DEFPOINTS
 62
     0
 48
5.0
100
AcDbPoint
 10
1317.545641919702
 20
-358.1153098027578
 30
0.0
  0
POINT
  5
8C87
330
89C4
100
AcDbEntity
  8
DEFPOINTS
 62
     0
 48
5.0
100
AcDbPoint
 10
1345.703065919594
 20
-358.1153098027578
 30
0.0
  0
POINT
  5
8C88
330
89C4
100
AcDbEntity
  8
DEFPOINTS
 62
     0
 48
5.0
100
AcDbPoint
 10
1345.703065919594
 20
-360.4722961187856
 30
0.0
  0
ENDBLK
  5
89C6
330
89C4
100
AcDbEntity
  8
0
100
AcDbBlockEnd
  0
BLOCK
  5
89D2
330
89D1
100
AcDbEntity
  8
0
100
AcDbBlockBegin
  2
*D15
 70
     1
 10
0.0
 20
0.0
 30
0.0
  3
*D15
  1

  0
LINE
  5
8C89
330
89D1
100
AcDbEntity
  8
标注线
 48
5.0
370
    -2
100
AcDbLine
 10
1346.583065919594
 20
-341.9578618028241
 30
0.0
 11
1348.266830770783
 21
-341.9578618028241
 31
0.0
  0
LINE
  5
8C8A
330
89D1
100
AcDbEntity
  8
标注线
 48
5.0
370
    -2
100
AcDbLine
 10
1346.583065919594
 20
-358.1153098027578
 30
0.0
 11
1348.266830770783
 21
-358.1153098027578
 31
0.0
  0
LINE
  5
8C8B
330
89D1
100
AcDbEntity
  8
标注线
 48
5.0
370
    -2
100
AcDbLine
 10
1347.946830770783
 20
-342.6078618028241
 30
0.0
 11
1347.946830770783
 21
-348.3838231834185
 31
0.0
  0
LINE
  5
8C8C
330
89D1
100
AcDbEntity
  8
标注线
 48
5.0
370
    -2
100
AcDbLine
 10
1347.946830770783
 20
-357.4653098027577
 30
0.0
 11
1347.946830770783
 21
-351.6893484221633
 31
0.0
  0
SOLID
  5
8C8D
330
89D1
100
AcDbEntity
  8
标注线
 48
5.0
100
AcDbTrace
 10
1347.838497437449
 20
-342.6078618028241
 30
0.0
 11
1348.055164104116
 21
-342.6078618028241
 31
0.0
 12
1347.946830770783
 22
-341.9578618028241
 32
0.0
 13
1347.946830770783
 23
-341.9578618028241
 33
0.0
  0
SOLID
  5
8C8E
330
89D1
100
AcDbEntity
  8
标注线
 48
5.0
100
AcDbTrace
 10
1347.838497437449
 20
-357.4653098027577
 30
0.0
 11
1348.055164104116
 21
-357.4653098027577
 31
0.0
 12
1347.946830770783
 22
-358.1153098027578
 32
0.0
 13
1347.946830770783
 23
-358.1153098027578
 33
0.0
  0
MTEXT
  5
8C8F
330
89D1
100
AcDbEntity
  8
标注线
 48
5.0
100
AcDbMText
 10
1347.946830770783
 20
-350.0365858027907
 30
0.0
 40
0.65
 41
0.0
 71
     5
 72
     1
  1
\A1;16 1/8"
 11
0.0000000000000001
 21
1.0
 31
0.0
 73
     1
 44
1.0
  0
POINT
  5
8C90
330
89D1
100
AcDbEntity
  8
DEFPOINTS
 62
     0
 48
5.0
100
AcDbPoint
 10
1345.703065919594
 20
-341.9578618028241
 30
0.0
  0
POINT
  5
8C91
330
89D1
100
AcDbEntity
  8
DEFPOINTS
 62
     0
 48
5.0
100
AcDbPoint
 10
1345.703065919594
 20
-358.1153098027578
 30
0.0
  0
POINT
  5
8C92
330
89D1
100
AcDbEntity
  8
DEFPOINTS
 62
     0
 48
5.0
100
AcDbPoint
 10
1347.946830770783
 20
-358.1153098027578
 30
0.0
  0
ENDBLK
  5
89D3
330
89D1
100
AcDbEntity
  8
0
100
AcDbBlockEnd
  0
BLOCK
  5
8A44
330
8A43
100
AcDbEntity
  8
0
100
AcDbBlockBegin
  2
*D16
 70
     1
 10
0.0
 20
0.0
 30
0.0
  3
*D16
  1

  0
LINE
  5
8C93
330
8A43
100
AcDbEntity
  8
标注线
 48
5.0
370
    -2
100
AcDbLine
 10
1346.339709359228
 20
-293.9426105236004
 30
0.0
 11
1348.465179775392
 21
-293.9426105236004
 31
0.0
  0
LINE
  5
8C94
330
8A43
100
AcDbEntity
  8
标注线
 48
5.0
370
    -2
100
AcDbLine
 10
1347.425583919596
 20
-283.9342886597159
 30
0.0
 11
1348.465179775392
 21
-283.9342886597159
 31
0.0
  0
LINE
  5
8C95
330
8A43
100
AcDbEntity
  8
标注线
 48
5.0
370
    -2
100
AcDbLine
 10
1348.145179775392
 20
-293.2926105236004
 30
0.0
 11
1348.145179775392
 21
-289.8339134388614
 31
0.0
  0
LINE
  5
8C96
330
8A43
100
AcDbEntity
  8
标注线
 48
5.0
370
    -2
100
AcDbLine
 10
1348.145179775392
 20
-284.5842886597159
 30
0.0
 11
1348.145179775392
 21
-288.0429857444548
 31
0.0
  0
SOLID
  5
8C97
330
8A43
100
AcDbEntity
  8
标注线
 48
5.0
100
AcDbTrace
 10
1348.036846442059
 20
-293.2926105236004
 30
0.0
 11
1348.253513108726
 21
-293.2926105236004
 31
0.0
 12
1348.145179775392
 22
-293.9426105236004
 32
0.0
 13
1348.145179775392
 23
-293.9426105236004
 33
0.0
  0
SOLID
  5
8C98
330
8A43
100
AcDbEntity
  8
标注线
 48
5.0
100
AcDbTrace
 10
1348.036846442059
 20
-284.5842886597159
 30
0.0
 11
1348.253513108726
 21
-284.5842886597159
 31
0.0
 12
1348.145179775392
 22
-283.9342886597159
 32
0.0
 13
1348.145179775392
 23
-283.9342886597159
 33
0.0
  0
MTEXT
  5
8C99
330
8A43
100
AcDbEntity
  8
标注线
 48
5.0
100
AcDbMText
 10
1348.145179775392
 20
-288.9384495916578
 30
0.0
 40
0.65
 41
0.0
 71
     5
 72
     1
  1
\A1;10"
 11
0.0000000000000001
 21
1.0
 31
0.0
 73
     1
 44
1.0
  0
POINT
  5
8C9A
330
8A43
100
AcDbEntity
  8
DEFPOINTS
 62
     0
 48
5.0
100
AcDbPoint
 10
1345.459709359228
 20
-293.9426105236004
 30
0.0
  0
POINT
  5
8C9B
330
8A43
100
AcDbEntity
  8
DEFPOINTS
 62
     0
 48
5.0
100
AcDbPoint
 10
1346.545583919596
 20
-283.9342886597159
 30
0.0
  0
POINT
  5
8C9C
330
8A43
100
AcDbEntity
  8
DEFPOINTS
 62
     0
 48
5.0
100
AcDbPoint
 10
1348.145179775392
 20
-283.9342886597159
 30
0.0
  0
ENDBLK
  5
8A45
330
8A43
100
AcDbEntity
  8
0
100
AcDbBlockEnd
  0
BLOCK
  5
8C45
330
8C3A
100
AcDbEntity
  8
0
100
AcDbBlockBegin
  2
*D17
 70
     1
 10
0.0
 20
0.0
 30
0.0
  3
*D17
  1

  0
LINE
  5
8C3B
330
8C3A
100
AcDbEntity
  8
标注线
  6
Continuous
370
    -2
100
AcDbLine
 10
710.2615207747076
 20
-512.8630576863752
 30
0.0
 11
697.2615207747113
 21
-512.8630576863752
 31
0.0
  0
LINE
  5
8C3C
330
8C3A
100
AcDbEntity
  8
标注线
  6
Continuous
370
    -2
100
AcDbLine
 10
670.2615207747112
 20
-397.8632876864022
 30
0.0
 11
683.2615207747112
 21
-397.8632876864022
 31
0.0
  0
LINE
  5
8C3D
330
8C3A
100
AcDbEntity
  8
标注线
  6
Continuous
370
    -2
100
AcDbLine
 10
690.2615207747113
 20
-496.8630576863752
 30
0.0
 11
690.2615207747113
 21
-481.5910035185852
 31
0.0
  0
LINE
  5
8C3E
330
8C3A
100
AcDbEntity
  8
标注线
  6
Continuous
370
    -2
100
AcDbLine
 10
690.2615207747113
 20
-413.8632876864021
 30
0.0
 11
690.2615207747113
 21
-429.1353418541921
 31
0.0
  0
SOLID
  5
8C3F
330
8C3A
100
AcDbEntity
  8
标注线
100
AcDbTrace
 10
687.5948541080446
 20
-496.8630576863752
 30
0.0
 11
692.9281874413779
 21
-496.8630576863752
 31
0.0
 12
690.2615207747113
 22
-512.8630576863752
 32
0.0
 13
690.2615207747113
 23
-512.8630576863752
 33
0.0
  0
SOLID
  5
8C40
330
8C3A
100
AcDbEntity
  8
标注线
100
AcDbTrace
 10
687.5948541080446
 20
-413.8632876864021
 30
0.0
 11
692.9281874413779
 21
-413.8632876864021
 31
0.0
 12
690.2615207747113
 22
-397.8632876864022
 32
0.0
 13
690.2615207747113
 23
-397.8632876864022
 33
0.0
  0
MTEXT
  5
8C41
330
8C3A
100
AcDbEntity
  8
标注线
100
AcDbMText
 10
690.2615207747113
 20
-455.3631726863886
 30
0.0
 40
20.0
 41
0.0
 71
     5
 72
     1
  1
\A1;115
 11
0.0000000000000001
 21
1.0
 31
0.0
 73
     1
 44
1.0
  0
POINT
  5
8C42
330
8C3A
100
AcDbEntity
  8
DEFPOINTS
 62
     0
100
AcDbPoint
 10
690.2615207747076
 20
-512.8630576863752
 30
0.0
  0
POINT
  5
8C43
330
8C3A
100
AcDbEntity
  8
DEFPOINTS
 62
     0
100
AcDbPoint
 10
690.2615207747113
 20
-397.8632876864022
 30
0.0
  0
POINT
  5
8C44
330
8C3A
100
AcDbEntity
  8
DEFPOINTS
 62
     0
100
AcDbPoint
 10
690.2615207747113
 20
-397.8632876864022
 30
0.0
  0
ENDBLK
  5
8C46
330
8C3A
100
AcDbEntity
  8
0
100
AcDbBlockEnd
  0
BLOCK
  5
8C53
330
8C48
100
AcDbEntity
  8
0
100
AcDbBlockBegin
  2
*D18
 70
     1
 10
0.0
 20
0.0
 30
0.0
  3
*D18
  1

  0
LINE
  5
8C9D
330
8C48
100
AcDbEntity
  8
标注线
  6
Continuous
370
    -2
100
AcDbLine
 10
1351.54561391965
 20
-310.4476464008722
 30
0.0
 11
1338.866945597141
 21
-310.4476464008722
 31
0.0
  0
LINE
  5
8C9E
330
8C48
100
AcDbEntity
  8
标注线
  6
Continuous
370
    -2
100
AcDbLine
 10
1351.545613919651
 20
-305.7232460071913
 30
0.0
 11
1338.866945597141
 21
-305.7232460071913
 31
0.0
  0
LINE
  5
8C9F
330
8C48
100
AcDbEntity
  8
标注线
  6
Continuous
370
    -2
100
AcDbLine
 10
1331.866945597141
 20
-326.4476464008721
 30
0.0
 11
1331.866945597141
 21
-342.4476464008721
 31
0.0
  0
LINE
  5
8CA0
330
8C48
100
AcDbEntity
  8
标注线
  6
Continuous
370
    -2
100
AcDbLine
 10
1331.866945597141
 20
-289.7232460071913
 30
0.0
 11
1331.866945597141
 21
-273.7232460071914
 31
0.0
  0
LINE
  5
8CA1
330
8C48
100
AcDbEntity
  8
标注线
  6
Continuous
370
    -2
100
AcDbLine
 10
1331.866945597141
 20
-310.4476464008722
 30
0.0
 11
1331.866945597141
 21
-305.7232460071913
 31
0.0
  0
SOLID
  5
8CA2
330
8C48
100
AcDbEntity
  8
标注线
100
AcDbTrace
 10
1329.200278930475
 20
-326.4476464008721
 30
0.0
 11
1334.533612263808
 21
-326.4476464008721
 31
0.0
 12
1331.866945597141
 22
-310.4476464008722
 32
0.0
 13
1331.866945597141
 23
-310.4476464008722
 33
0.0
  0
SOLID
  5
8CA3
330
8C48
100
AcDbEntity
  8
标注线
100
AcDbTrace
 10
1329.200278930475
 20
-289.7232460071913
 30
0.0
 11
1334.533612263808
 21
-289.7232460071913
 31
0.0
 12
1331.866945597141
 22
-305.7232460071913
 32
0.0
 13
1331.866945597141
 23
-305.7232460071913
 33
0.0
  0
MTEXT
  5
8CA4
330
8C48
100
AcDbEntity
  8
标注线
100
AcDbMText
 10
1331.866945597141
 20
-250.1147876170138
 30
0.0
 40
20.0
 41
0.0
 71
     5
 72
     1
  1
\A1;4,7
 11
0.0000000000000001
 21
1.0
 31
0.0
 73
     1
 44
1.0
  0
POINT
  5
8CA5
330
8C48
100
AcDbEntity
  8
DEFPOINTS
 62
     0
100
AcDbPoint
 10
1331.54561391965
 20
-310.4476464008722
 30
0.0
  0
POINT
  5
8CA6
330
8C48
100
AcDbEntity
  8
DEFPOINTS
 62
     0
100
AcDbPoint
 10
1331.545613919651
 20
-305.7232460071913
 30
0.0
  0
POINT
  5
8CA7
330
8C48
100
AcDbEntity
  8
DEFPOINTS
 62
     0
100
AcDbPoint
 10
1331.866945597141
 20
-305.7232460071913
 30
0.0
  0
ENDBLK
  5
8C54
330
8C48
100
AcDbEntity
  8
0
100
AcDbBlockEnd
  0
ENDSEC
  0
SECTION
  2
ENTITIES
  0
LINE
  5
891C
330
5F6E
100
AcDbEntity
  8
0
100
AcDbLine
 10
1317.545641919702
 20
-321.7232140071311
 30
0.0
 11
1329.682720069856
 21
-311.7681826843403
 31
0.0
  0
LINE
  5
891D
330
5F6E
100
AcDbEntity
  8
0
100
AcDbLine
 10
1317.545641919702
 20
-305.7232460071913
 30
0.0
 11
1329.422458052843
 21
-309.6071710967728
 31
0.0
  0
LINE
  5
891E
330
5F6E
100
AcDbEntity
  8
0
100
AcDbLine
 10
1316.545643919706
 20
-283.9342886597159
 30
0.0
 11
1317.427531919707
 21
-283.9342886597159
 31
0.0
  0
LINE
  5
8922
330
5F6E
100
AcDbEntity
  8
0
100
AcDbLine
 10
1345.663695919595
 20
-283.9342886597159
 30
0.0
 11
1346.545583919596
 21
-283.9342886597159
 31
0.0
  0
LINE
  5
8923
330
5F6E
100
AcDbEntity
  8
0
100
AcDbLine
 10
1317.427531919707
 20
-283.9342886597159
 30
0.0
 11
1345.663695919595
 21
-283.9342886597159
 31
0.0
  0
LINE
  5
8924
330
5F6E
100
AcDbEntity
  8
细实线
  6
ACAD_ISO02W100
 62
     4
100
AcDbLine
 10
1329.262153919654
 20
-294.0130086596805
 30
0.0
 11
1333.829073919647
 21
-294.0130086596805
 31
0.0
  0
LINE
  5
8925
330
5F6E
100
AcDbEntity
  8
0
100
AcDbLine
 10
1333.316333693798
 20
-311.6925799899465
 30
0.0
 11
1333.316948313045
 21
-311.6930841107719
 31
0.0
  0
LINE
  5
8926
330
5F6E
100
AcDbEntity
  8
0
100
AcDbLine
 10
1333.668769786458
 20
-309.6071710967731
 30
0.0
 11
1345.5455859196
 21
-305.7232460071913
 31
0.0
  0
LINE
  5
8927
330
5F6E
100
AcDbEntity
  8
0
100
AcDbLine
 10
1316.545643919706
 20
-322.7232120071263
 30
0.0
 11
1316.545643919706
 21
-304.7232480071959
 31
0.0
  0
LINE
  5
8928
330
5F6E
100
AcDbEntity
  8
0
100
AcDbLine
 10
1316.545643919706
 20
-322.7232120071263
 30
0.0
 11
1346.545583919596
 21
-322.7232120071263
 31
0.0
  0
LINE
  5
8929
330
5F6E
100
AcDbEntity
  8
0
100
AcDbLine
 10
1316.545643919706
 20
-304.7232480071959
 30
0.0
 11
1346.545583919596
 21
-304.7232480071959
 31
0.0
  0
LINE
  5
892A
330
5F6E
100
AcDbEntity
  8
0
100
AcDbLine
 10
1346.545583919596
 20
-304.7232480071959
 30
0.0
 11
1346.545583919596
 21
-322.7232120071263
 31
0.0
  0
LINE
  5
892B
330
5F6E
100
AcDbEntity
  8
0
100
AcDbLine
 10
1317.545641919702
 20
-321.7232140071311
 30
0.0
 11
1345.5455859196
 21
-321.7232140071311
 31
0.0
  0
LINE
  5
892C
330
5F6E
100
AcDbEntity
  8
0
100
AcDbLine
 10
1345.5455859196
 20
-305.7232460071913
 30
0.0
 11
1345.5455859196
 21
-321.7232140071311
 31
0.0
  0
LINE
  5
892D
330
5F6E
100
AcDbEntity
  8
0
100
AcDbLine
 10
1317.545641919702
 20
-321.7232140071311
 30
0.0
 11
1317.545641919702
 21
-305.7232460071913
 31
0.0
  0
LINE
  5
892E
330
5F6E
100
AcDbEntity
  8
0
100
AcDbLine
 10
1317.545641919702
 20
-305.7232460071913
 30
0.0
 11
1345.5455859196
 21
-305.7232460071913
 31
0.0
  0
DIMENSION
  5
892F
330
5F6E
100
AcDbEntity
  8
标注线
 48
5.0
100
AcDbDimension
  2
*D10
 10
1346.545583919596
 20
-326.5593345355717
 30
0.0
 11
1331.54561391965
 21
-326.5593345355717
 31
0.0
 70
   160
 71
     5
 42
29.99993999988965
  3
副本STANDARD
100
AcDbAlignedDimension
 13
1316.545643919706
 23
-323.1169120071253
 33
0.0
 14
1346.545583919596
 24
-323.1169120071253
 34
0.0
100
AcDbRotatedDimension
  0
CIRCLE
  5
8930
330
5F6E
100
AcDbEntity
  8
0
100
AcDbCircle
 10
1331.54561391965
 20
-310.4476464008722
 30
0.0
 40
2.165349999991338
  0
DIMENSION
  5
8931
330
5F6E
100
AcDbEntity
  8
标注线
 48
5.0
100
AcDbDimension
  2
*D11
 10
1350.844524844738
 20
-322.7232120071263
 30
0.0
 11
1350.844524844753
 21
-313.7232300071393
 31
0.0
 70
   160
 71
     5
 42
17.99996399993039
  3
副本STANDARD
100
AcDbAlignedDimension
 13
1346.939283919594
 23
-304.7232480071959
 33
0.0
 14
1346.939283919594
 24
-322.7232120071263
 34
0.0
 50
90.0
100
AcDbRotatedDimension
  0
DIMENSION
  5
8932
330
5F6E
100
AcDbEntity
  8
标注线
 48
5.0
100
AcDbDimension
  2
*D12
 10
1348.834083919574
 20
-321.7232140071311
 30
0.0
 11
1348.834083919589
 21
-313.7232300071393
 31
0.0
 70
   160
 71
     5
 42
15.99996799993971
  3
副本STANDARD
100
AcDbAlignedDimension
 13
1346.939283919594
 23
-305.7232460071913
 33
0.0
 14
1346.939283919594
 24
-321.7232140071311
 34
0.0
 50
90.0
100
AcDbRotatedDimension
  0
DIMENSION
  5
8933
330
5F6E
100
AcDbEntity
  8
标注线
 48
5.0
100
AcDbDimension
  2
*D13
 10
1345.5455859196
 20
-324.6917120071212
 30
0.0
 11
1331.545613919651
 21
-324.6917120071212
 31
0.0
 70
    32
 71
     5
 42
27.99994399989828
  3
副本STANDARD
100
AcDbAlignedDimension
 13
1317.545641919702
 23
-323.1169120071253
 33
0.0
 14
1345.5455859196
 24
-323.1169120071253
 34
0.0
100
AcDbRotatedDimension
  0
CIRCLE
  5
8934
330
5F6E
100
AcDbEntity
  8
0
100
AcDbCircle
 10
1331.54561391965
 20
-310.4476464008722
 30
0.0
 40
1.791334999992834
  0
CIRCLE
  5
8935
330
5F6E
100
AcDbEntity
  8
0
100
AcDbCircle
 10
1331.54561391965
 20
-310.4476464008722
 30
0.0
 40
2.283459999990865
  0
LINE
  5
8936
330
5F6E
100
AcDbEntity
  8
细实线
  6
ACAD_ISO02W100
 62
     4
100
AcDbLine
 10
1333.902069392114
 20
-294.0130086596805
 30
0.0
 11
1329.189157925269
 21
-294.0130086596805
 31
0.0
  0
ARC
  5
8937
330
5F6E
100
AcDbEntity
  8
截面层
  6
ACAD_ISO02W100
 62
     4
370
     9
100
AcDbCircle
 10
1329.189157925254
 20
-294.1311186596759
 30
0.0
 40
0.1181099999995276
100
AcDbArc
 50
26.56505106327915
 51
90.0
  0
ARC
  5
8938
330
5F6E
100
AcDbEntity
  8
细实线
  6
ACAD_ISO02W100
 62
     4
100
AcDbCircle
 10
1333.902069914047
 20
-294.1311186596759
 30
0.0
 40
0.1181099999995276
100
AcDbArc
 50
90.0
 51
153.4349486711655
  0
ARC
  5
8939
330
5F6E
100
AcDbEntity
  8
细实线
  6
ACAD_ISO02W100
 62
     4
100
AcDbCircle
 10
1329.416761916857
 20
-294.1901736596808
 30
0.0
 40
0.0590549999997638
100
AcDbArc
 50
206.5650516506233
 51
269.9999999573139
  0
ARC
  5
893A
330
5F6E
100
AcDbEntity
  8
细实线
  6
ACAD_ISO02W100
 62
     4
100
AcDbCircle
 10
1333.674465922445
 20
-294.1901736596808
 30
0.0
 40
0.0590549999997638
100
AcDbArc
 50
270.000000042686
 51
333.4349477714295
  0
LINE
  5
893B
330
5F6E
100
AcDbEntity
  8
细实线
  6
ACAD_ISO02W100
 62
     4
100
AcDbLine
 10
1333.72728632019
 20
-294.2165838585385
 30
0.0
 11
1333.796429118516
 21
-294.0782982619023
 31
0.0
  0
LINE
  5
893C
330
5F6E
100
AcDbEntity
  8
细实线
  6
ACAD_ISO02W100
 62
     4
100
AcDbLine
 10
1329.416761916857
 20
-294.2492286596711
 30
0.0
 11
1329.773963919663
 21
-294.2492286596711
 31
0.0
  0
LINE
  5
893D
330
5F6E
100
AcDbEntity
  8
细实线
  6
ACAD_ISO02W100
 62
     4
100
AcDbLine
 10
1333.31726391964
 20
-294.3082836596762
 30
0.0
 11
1333.31726391964
 21
-294.2492286596711
 31
0.0
  0
LINE
  5
893E
330
5F6E
100
AcDbEntity
  8
细实线
  6
ACAD_ISO02W100
 62
     4
100
AcDbLine
 10
1329.363941519112
 20
-294.2165838585385
 30
0.0
 11
1329.294798720787
 21
-294.0782982619023
 31
0.0
  0
LINE
  5
893F
330
5F6E
100
AcDbEntity
  8
细实线
  6
ACAD_ISO02W100
 62
     4
100
AcDbLine
 10
1329.773963919663
 20
-294.3082836596762
 30
0.0
 11
1329.773963919663
 21
-294.2492286596711
 31
0.0
  0
LINE
  5
8940
330
5F6E
100
AcDbEntity
  8
细实线
  6
ACAD_ISO02W100
 62
     4
100
AcDbLine
 10
1333.31726391964
 20
-294.2492286596711
 30
0.0
 11
1333.674465922445
 21
-294.2492286596711
 31
0.0
  0
LINE
  5
8941
330
5F6E
100
AcDbEntity
  8
细实线
  6
ACAD_ISO02W100
 62
     4
100
AcDbLine
 10
1329.773963919663
 20
-294.2492286596711
 30
0.0
 11
1333.31726391964
 21
-294.2492286596711
 31
0.0
  0
LINE
  5
8942
330
5F6E
100
AcDbEntity
  8
0
100
AcDbLine
 10
1329.311121121338
 20
-294.2429940574253
 30
0.0
 11
1329.241978323028
 21
-294.1047084607745
 31
0.0
  0
ARC
  5
8943
330
5F6E
100
AcDbEntity
  8
0
100
AcDbCircle
 10
1329.189157925254
 20
-294.1311186596759
 30
0.0
 40
0.0590549999997638
100
AcDbArc
 50
26.56505106327915
 51
90.0
  0
LINE
  5
8944
330
5F6E
100
AcDbEntity
  8
0
100
AcDbLine
 10
1318.091499854939
 20
-293.8853889545973
 30
0.0
 11
1329.189157925269
 21
-294.072063659671
 31
0.0
  0
ARC
  5
8945
330
5F6E
100
AcDbEntity
  8
0
100
AcDbCircle
 10
1329.416761916857
 20
-294.1901736596808
 30
0.0
 40
0.1181099999995276
100
AcDbArc
 50
206.5650516506233
 51
269.9999999573139
  0
LINE
  5
8946
330
5F6E
100
AcDbEntity
  8
0
100
AcDbLine
 10
1329.416761916857
 20
-294.3082836596762
 30
0.0
 11
1329.773963919663
 21
-294.3082836596762
 31
0.0
  0
LINE
  5
8947
330
5F6E
100
AcDbEntity
  8
0
  6
Continuous
100
AcDbLine
 10
1329.773963919663
 20
-294.3082836596762
 30
0.0
 11
1333.31726391964
 21
-294.3082836596762
 31
0.0
  0
LINE
  5
8948
330
5F6E
100
AcDbEntity
  8
0
100
AcDbLine
 10
1333.31726391964
 20
-294.3082836596762
 30
0.0
 11
1333.674465922445
 21
-294.3082836596762
 31
0.0
  0
ARC
  5
8949
330
5F6E
100
AcDbEntity
  8
0
100
AcDbCircle
 10
1333.674465922445
 20
-294.1901736596808
 30
0.0
 40
0.1181099999995276
100
AcDbArc
 50
270.000000042686
 51
333.4349477714295
  0
LINE
  5
894A
330
5F6E
100
AcDbEntity
  8
0
100
AcDbLine
 10
1333.780106717964
 20
-294.2429940574253
 30
0.0
 11
1333.849249516274
 21
-294.1047084607745
 31
0.0
  0
ARC
  5
894B
330
5F6E
100
AcDbEntity
  8
0
100
AcDbCircle
 10
1333.902069914047
 20
-294.1311186596759
 30
0.0
 40
0.0590549999997638
100
AcDbArc
 50
90.0
 51
153.4349486711655
  0
LINE
  5
894D
330
5F6E
100
AcDbEntity
  8
0
100
AcDbLine
 10
1345.663695919595
 20
-283.9933436597208
 30
0.0
 11
1346.545583919596
 21
-283.9933436597208
 31
0.0
  0
LINE
  5
894E
330
5F6E
100
AcDbEntity
  8
0
100
AcDbLine
 10
1316.545643919706
 20
-283.9933436597208
 30
0.0
 11
1317.427531919707
 21
-283.9933436597208
 31
0.0
  0
LINE
  5
8950
330
5F6E
100
AcDbEntity
  8
0
100
AcDbLine
 10
1316.545643919706
 20
-283.9342886597159
 30
0.0
 11
1316.545643919706
 21
-283.9933436597208
 31
0.0
  0
LINE
  5
8951
330
5F6E
100
AcDbEntity
  8
0
100
AcDbLine
 10
1346.545583919596
 20
-283.9342886597159
 30
0.0
 11
1346.545583919596
 21
-283.9933436597208
 31
0.0
  0
LINE
  5
8958
330
5F6E
100
AcDbEntity
  8
细实线
  6
ACAD_ISO02W100
 62
     4
100
AcDbLine
 10
1344.944174933909
 20
-293.8263263575107
 30
0.0
 11
1333.902069914033
 21
-294.0130086596805
 31
0.0
  0
LINE
  5
8959
330
5F6E
100
AcDbEntity
  8
0
100
AcDbLine
 10
1344.999727984364
 20
-293.8853889545833
 30
0.0
 11
1333.902069914033
 21
-294.072063659671
 31
0.0
  0
LINE
  5
895C
330
5F6E
100
AcDbEntity
  8
0
100
AcDbLine
 10
1317.427531919707
 20
-283.9933436597208
 30
0.0
 11
1345.663695919595
 21
-283.9933436597208
 31
0.0
  0
LINE
  5
895D
330
5F6E
100
AcDbEntity
  8
0
100
AcDbLine
 10
1329.189157925254
 20
-294.072063659671
 30
0.0
 11
1333.902069914047
 21
-294.072063659671
 31
0.0
  0
LINE
  5
895E
330
5F6E
100
AcDbEntity
  8
中心线
  6
Continuous
 62
     1
100
AcDbLine
 10
1317.545641919702
 20
-341.9578618028241
 30
0.0
 11
1345.703065919594
 21
-341.9578618028241
 31
0.0
  0
LINE
  5
895F
102
{ACAD_REACTORS
330
8964
330
8967
102
}
330
5F6E
100
AcDbEntity
  8
中心线
  6
Continuous
 62
     1
100
AcDbLine
 10
1345.703065919594
 20
-341.9578618028241
 30
0.0
 11
1345.703065919594
 21
-358.1153098027578
 31
0.0
  0
LINE
  5
8960
330
5F6E
100
AcDbEntity
  8
中心线
  6
Continuous
 62
     1
100
AcDbLine
 10
1317.545641919702
 20
-358.1153098027578
 30
0.0
 11
1317.545641919702
 21
-341.9578618028241
 31
0.0
  0
LINE
  5
8961
102
{ACAD_REACTORS
330
8964
330
8967
102
}
330
5F6E
100
AcDbEntity
  8
中心线
  6
Continuous
 62
     1
100
AcDbLine
 10
1317.545641919702
 20
-358.1153098027578
 30
0.0
 11
1345.703065919594
 21
-358.1153098027578
 31
0.0
  0
DIMENSION
  5
8962
102
{ACAD_XDICTIONARY
360
8963
102
}
102
{ACAD_REACTORS
330
8964
102
}
330
5F6E
100
AcDbEntity
  8
标注线
 48
5.0
100
AcDbDimension
  2
*D14
 10
1345.703065919594
 20
-360.4722961187856
 30
0.0
 11
1331.624353919648
 21
-360.4722961187856
 31
0.0
 70
    32
 71
     5
 42
28.15742399989222
  3
副本STANDARD
100
AcDbAlignedDimension
 13
1317.545641919702
 23
-358.1153098027578
 33
0.0
 14
1345.703065919594
 24
-358.1153098027578
 34
0.0
100
AcDbRotatedDimension
  0
DIMENSION
  5
8965
102
{ACAD_XDICTIONARY
360
8966
102
}
102
{ACAD_REACTORS
330
8967
102
}
330
5F6E
100
AcDbEntity
  8
标注线
 48
5.0
100
AcDbDimension
  2
*D15
 10
1347.946830770783
 20
-358.1153098027578
 30
0.0
 11
1347.946830770783
 21
-350.0365858027907
 31
0.0
 70
    32
 71
     5
 42
16.15744799993354
  3
副本STANDARD
100
AcDbAlignedDimension
 13
1345.703065919594
 23
-341.9578618028241
 33
0.0
 14
1345.703065919594
 24
-358.1153098027578
 34
0.0
 50
90.0
100
AcDbRotatedDimension
  0
DIMENSION
  5
8A42
330
5F6E
100
AcDbEntity
  8
标注线
 48
5.0
100
AcDbDimension
  2
*D16
 10
1348.145179775392
 20
-283.9342886597159
 30
0.0
 11
1348.145179775392
 21
-288.9384495916578
 31
0.0
 70
    32
 71
     5
 42
10.00832186388447
  3
副本Standard$0
100
AcDbAlignedDimension
 13
1345.459709359228
 23
-293.9426105236004
 33
0.0
 14
1346.545583919596
 24
-283.9342886597159
 34
0.0
 50
90.0
100
AcDbRotatedDimension
1001
ACAD
1000
DSTYLE
1002
{
1070
     3
1000
"
1070
    41
1040
0.65
1070
    42
1040
0.88
1070
    43
1040
0.015
1070
    44
1040
0.32
1070
    79
1070
     0
1070
   140
1040
0.65
1070
   147
1040
0.3
1070
   171
1070
     1
1070
   179
1070
     0
1070
   271
1070
     3
1070
   272
1070
     3
1070
   273
1070
     2
1070
   274
1070
     1
1070
   276
1070
     2
1070
   277
1070
     5
1070
   278
1070
    46
1070
   279
1070
     2
1070
   284
1070
     8
1070
   285
1070
     8
1070
   286
1070
     8
1002
}
  0
TEXT
  5
8BC5
330
5F6E
100
AcDbEntity
  8
标注
100
AcDbText
 10
1328.739150933383
 20
-298.0275526956707
 30
0.0
 40
0.7874015748000001
  1
FRONT VIEW
100
AcDbText
  0
TEXT
  5
8BC6
330
5F6E
100
AcDbEntity
  8
标注
100
AcDbText
 10
1326.168724442401
 20
-330.5194067829404
 30
0.0
 40
0.7874015748000001
  1
OVERHEAD VIEW
100
AcDbText
  0
TEXT
  5
8BC7
330
5F6E
100
AcDbEntity
  8
标注
100
AcDbText
 10
1331.997308406096
 20
-364.6376759181884
 30
0.0
 40
0.7874015748000001
  1
 CUTOUT
100
AcDbText
  0
LINE
  5
8BC8
330
5F6E
100
AcDbEntity
  8
中心线
  6
Continuous
 62
     1
100
AcDbLine
 10
1324.331902325559
 20
-364.3844744508844
 30
0.0
 11
1330.548707329618
 21
-364.3844744508844
 31
0.0
  0
LINE
  5
8C34
330
5F6E
100
AcDbEntity
  8
标注线
100
AcDbLine
 10
1317.545641919702
 20
-283.9933436597208
 30
0.0
 11
1318.147052905393
 21
-293.8263263575107
 31
0.0
  0
LINE
  5
8C35
330
5F6E
100
AcDbEntity
  8
标注线
100
AcDbLine
 10
1317.486696951291
 20
-283.9969488884335
 30
0.0
 11
1318.091499854939
 21
-293.8853889545973
 31
0.0
  0
LINE
  5
8C36
330
5F6E
100
AcDbEntity
  8
标注线
100
AcDbLine
 10
1345.545585919601
 20
-283.9933436597208
 30
0.0
 11
1344.944174933909
 21
-293.8263263575107
 31
0.0
  0
LINE
  5
8C37
330
5F6E
100
AcDbEntity
  8
标注线
100
AcDbLine
 10
1345.604530888011
 20
-283.9969488884335
 30
0.0
 11
1344.999727984364
 21
-293.8853889545833
 31
0.0
  0
LINE
  5
8C38
330
5F6E
100
AcDbEntity
  8
截面层
  6
ACAD_ISO02W100
 62
     4
370
     9
100
AcDbLine
 10
1318.147052905393
 20
-293.8263263575107
 30
0.0
 11
1329.189157925269
 21
-294.0130086596805
 31
0.0
  0
LINE
  5
8C55
330
5F6E
100
AcDbEntity
  8
0
100
AcDbLine
 10
1329.774279526256
 20
-311.6930841107721
 30
0.0
 11
1329.774894145504
 21
-311.6925799899465
 31
0.0
  0
LINE
  5
8C56
330
5F6E
100
AcDbEntity
  8
0
100
AcDbLine
 10
1333.408507769445
 20
-311.76818268434
 30
0.0
 11
1345.5455859196
 21
-321.7232140071311
 31
0.0
  0
ENDSEC
  0
SECTION
  2
OBJECTS
  0
DICTIONARY
  5
5F06
330
0
100
AcDbDictionary
281
     1
  3
ACAD_2007HEADERVARS_RT
350
8CB4
  3
ACAD_COLOR
350
5F64
  3
ACAD_GROUP
350
5F07
  3
ACAD_LAYOUT
350
5F63
  3
ACAD_MATERIAL
350
5F0A
  3
ACAD_MLEADERSTYLE
350
5F67
  3
ACAD_MLINESTYLE
350
5F60
  3
ACAD_PLOTSETTINGS
350
5F62
  3
ACAD_PLOTSTYLENAME
350
5F08
  3
ACAD_SCALELIST
350
5F34
  3
ACAD_TABLESTYLE
350
5F65
  3
ACAD_VISUALSTYLE
350
5F23
  3
ACDB_RECOMPOSE_DATA
350
6F70
  3
AcDbVariableDictionary
350
6102
  3
lxx_dict
350
60F2
  0
DICTIONARY
  5
61B7
330
5EFC
100
AcDbDictionary
280
     1
281
     1
  3
ACAD_LAYERSTATES
360
61B8
  0
DICTIONARY
  5
60F4
330
5F56
100
AcDbDictionary
280
     1
281
     1
  3
ADSK_XREC_LAYER_RECONCILED
360
60F5
  0
DICTIONARY
  5
60F6
330
5F72
100
AcDbDictionary
280
     1
281
     1
  3
ADSK_XREC_LAYER_RECONCILED
360
60F7
  0
DICTIONARY
  5
60F8
330
5F7D
100
AcDbDictionary
280
     1
281
     1
  3
ADSK_XREC_LAYER_RECONCILED
360
60F9
  0
DICTIONARY
  5
60FA
330
5F7E
100
AcDbDictionary
280
     1
281
     1
  3
ADSK_XREC_LAYER_RECONCILED
360
60FB
  0
DICTIONARY
  5
60FC
330
5F80
100
AcDbDictionary
280
     1
281
     1
  3
ADSK_XREC_LAYER_RECONCILED
360
60FD
  0
DICTIONARY
  5
6B9D
330
6B9C
100
AcDbDictionary
280
     1
281
     1
  0
DICTIONARY
  5
654F
330
5F6E
100
AcDbDictionary
280
     1
281
     1
  3
ACAD_SORTENTS
360
6550
  0
DICTIONARY
  5
8963
330
8962
100
AcDbDictionary
280
     1
281
     1
  3
ACAD_DIMASSOC
360
8964
  0
DICTIONARY
  5
8966
330
8965
100
AcDbDictionary
280
     1
281
     1
  3
ACAD_DIMASSOC
360
8967
  0
DICTIONARY
  5
8CB4
102
{ACAD_REACTORS
330
5F06
102
}
330
5F06
100
AcDbDictionary
281
     1
  3
DIMFXL
350
8CB5
  3
DIMJOGANG
350
8CB6
  3
DIMLTEX1
350
8CB8
  3
DIMLTEX2
350
8CB9
  3
DIMLTYPE
350
8CB7
  0
DICTIONARY
  5
5F64
102
{ACAD_REACTORS
330
5F06
102
}
330
5F06
100
AcDbDictionary
281
     1
  0
DICTIONARY
  5
5F07
102
{ACAD_REACTORS
330
5F06
102
}
330
5F06
100
AcDbDictionary
281
     1
  0
DICTIONARY
  5
5F63
102
{ACAD_REACTORS
330
5F06
102
}
330
5F06
100
AcDbDictionary
281
     1
  3
Model
350
5F71
  3
布局1
350
5F6D
  0
DICTIONARY
  5
5F0A
102
{ACAD_REACTORS
330
5F06
102
}
330
5F06
100
AcDbDictionary
281
     1
  3
ByBlock
350
5F13
  3
ByLayer
350
5F0B
  3
Global
350
5F1B
  0
DICTIONARY
  5
5F67
102
{ACAD_REACTORS
330
5F06
102
}
330
5F06
100
AcDbDictionary
281
     1
  3
Standard
350
5F68
  0
DICTIONARY
  5
5F60
102
{ACAD_REACTORS
330
5F06
102
}
330
5F06
100
AcDbDictionary
281
     1
  3
Standard
350
5F61
  0
DICTIONARY
  5
5F62
102
{ACAD_REACTORS
330
5F06
102
}
330
5F06
100
AcDbDictionary
281
     1
  0
ACDBDICTIONARYWDFLT
  5
5F08
102
{ACAD_REACTORS
330
5F06
102
}
330
5F06
100
AcDbDictionary
281
     1
  3
Normal
350
5F09
100
AcDbDictionaryWithDefault
340
5F09
  0
DICTIONARY
  5
5F34
102
{ACAD_REACTORS
330
5F06
102
}
330
5F06
100
AcDbDictionary
281
     1
  3
A0
350
5F35
  3
A1
350
5F36
  3
A2
350
5F37
  3
A3
350
5F38
  3
A4
350
5F39
  3
A5
350
5F3A
  3
A6
350
5F3B
  3
A7
350
5F3C
  3
A8
350
5F3D
  3
A9
350
5F3E
  3
B0
350
5F3F
  3
B1
350
5F40
  3
B2
350
5F41
  3
B3
350
5F42
  3
B4
350
5F43
  3
B5
350
5F44
  3
B6
350
5F45
  3
B7
350
5F46
  3
B8
350
5F47
  3
B9
350
5F48
  3
C0
350
5F49
  3
C1
350
5F4A
  3
C2
350
5F4B
  3
C3
350
5F4C
  3
C4
350
5F4D
  3
C5
350
5F4E
  3
C6
350
5F4F
  3
C7
350
5F50
  3
C8
350
5F51
  3
C9
350
5F52
  3
D0
350
5F53
  3
D1
350
5F54
  3
D2
350
5F55
  0
DICTIONARY
  5
5F65
102
{ACAD_REACTORS
330
5F06
102
}
330
5F06
100
AcDbDictionary
281
     1
  3
Standard
350
5F66
  0
DICTIONARY
  5
5F23
102
{ACAD_REACTORS
330
5F06
102
}
330
5F06
100
AcDbDictionary
281
     1
  3
2dWireframe
350
5F29
  3
3D Hidden
350
5F2B
  3
3dWireframe
350
5F2A
  3
Basic
350
5F28
  3
Brighten
350
5F2F
  3
ColorChange
350
5F33
  3
Conceptual
350
5F2C
  3
Dim
350
5F2E
  3
Facepattern
350
5F32
  3
Flat
350
5F24
  3
FlatWithEdges
350
5F25
  3
Gouraud
350
5F26
  3
GouraudWithEdges
350
5F27
  3
Linepattern
350
5F31
  3
Realistic
350
5F2D
  3
Thicken
350
5F30
  0
XRECORD
  5
6F70
102
{ACAD_REACTORS
330
5F06
102
}
330
5F06
100
AcDbXrecord
280
     1
 90
        1
330
5F66
  0
DICTIONARY
  5
6102
102
{ACAD_REACTORS
330
5F06
102
}
330
5F06
100
AcDbDictionary
281
     1
  3
CANNOSCALE
350
6105
  3
CMLEADERSTYLE
350
6104
  3
CTABLESTYLE
350
6103
  3
DIMASSOC
350
6108
  3
INDEXCTL
350
6107
  3
SORTENTS
350
6106
  0
DICTIONARY
  5
60F2
102
{ACAD_REACTORS
330
5F06
102
}
330
5F06
100
AcDbDictionary
281
     1
  3
lxx_dimth
350
60F3
  0
DICTIONARY
  5
61B8
102
{ACAD_REACTORS
330
61B7
102
}
330
61B7
100
AcDbDictionary
281
     1
  0
XRECORD
  5
60F5
102
{ACAD_REACTORS
330
60F4
102
}
330
60F4
100
AcDbXrecord
280
     1
290
     1
  0
XRECORD
  5
60F7
102
{ACAD_REACTORS
330
60F6
102
}
330
60F6
100
AcDbXrecord
280
     1
290
     1
  0
XRECORD
  5
60F9
102
{ACAD_REACTORS
330
60F8
102
}
330
60F8
100
AcDbXrecord
280
     1
290
     1
  0
XRECORD
  5
60FB
102
{ACAD_REACTORS
330
60FA
102
}
330
60FA
100
AcDbXrecord
280
     1
290
     1
  0
XRECORD
  5
60FD
102
{ACAD_REACTORS
330
60FC
102
}
330
60FC
100
AcDbXrecord
280
     1
290
     1
  0
SORTENTSTABLE
  5
6550
102
{ACAD_REACTORS
330
654F
102
}
330
654F
100
AcDbSortentsTable
330
5F6E
331
8927
  5
892A
331
8C56
  5
8928
331
8C35
  5
8C38
331
892F
  5
8932
331
8948
  5
894B
331
8946
  5
8949
331
8BC8
  5
8C36
331
8BC6
  5
8C34
331
8939
  5
893C
331
8C37
  5
8C55
331
8931
  5
8934
331
894A
  5
894E
331
8A42
  5
8BC7
331
8959
  5
895E
331
891C
  5
891C
331
893B
  5
893E
331
8933
  5
8936
331
891E
  5
8922
331
893D
  5
8940
331
8935
  5
8938
331
894E
  5
8952
331
895D
  5
8960
331
8928
  5
892B
331
893F
  5
8942
331
8961
  5
8A42
331
8937
  5
893A
331
8950
  5
8959
331
895F
  5
8962
331
8922
  5
8924
331
892A
  5
892D
331
8941
  5
8944
331
8924
  5
8926
331
892C
  5
892F
331
8C38
  5
8923
331
8943
  5
8946
331
8965
  5
8BC6
331
8926
  5
8929
331
8C55
  5
891D
331
8C34
  5
8C37
331
892E
  5
8931
331
8945
  5
8948
331
8BC5
  5
8BC8
331
8938
  5
893B
331
8C36
  5
8C47
331
8930
  5
8933
331
8949
  5
894D
331
8947
  5
894A
331
8958
  5
895D
331
8BC7
  5
8C35
331
893A
  5
893D
331
8932
  5
8935
331
894B
  5
894F
331
891D
  5
891E
331
893C
  5
893F
331
894D
  5
8951
331
8934
  5
8937
331
895C
  5
895F
331
8960
  5
8965
331
893E
  5
8941
331
8936
  5
8939
331
895E
  5
8961
331
8929
  5
892C
331
8962
  5
8BC5
331
8940
  5
8943
331
8951
  5
895C
331
8923
  5
8925
331
892B
  5
892E
331
8942
  5
8945
331
8925
  5
8927
331
892D
  5
8930
331
8944
  5
8947
  0
DIMASSOC
  5
8964
102
{ACAD_REACTORS
330
8963
102
}
330
8963
100
AcDbDimAssoc
330
8962
 90
        3
 70
     0
 71
     0
  1
AcDbOsnapPointRef
 72
    13
331
8961
 73
     2
 91
        0
 40
0.0
 10
0.0
 20
0.0
 30
2.000000000000000E+50
 75
     0
  1
AcDbOsnapPointRef
 72
     8
331
895F
 73
     2
 91
        0
 40
1.0
 10
0.0
 20
0.0
 30
0.0
 75
     1
  1
AcDbOsnapPointRef
 72
    13
331
8961
 73
     2
 91
        0
 40
0.0
 10
0.0
 20
0.0
 30
2.000000000000000E+50
 75
     0
  0
DIMASSOC
  5
8967
102
{ACAD_REACTORS
330
8966
102
}
330
8966
100
AcDbDimAssoc
330
8965
 90
        3
 70
     0
 71
     0
  1
AcDbOsnapPointRef
 72
    13
331
895F
 73
     2
 91
        0
 40
0.0
 10
0.0
 20
0.0
 30
2.000000000000000E+50
 75
     0
  1
AcDbOsnapPointRef
 72
     8
331
8961
 73
     2
 91
        0
 40
1.0
 10
0.0
 20
0.0
 30
0.0
 75
     1
  1
AcDbOsnapPointRef
 72
    13
331
895F
 73
     2
 91
        0
 40
0.0
 10
0.0
 20
0.0
 30
2.000000000000000E+50
 75
     0
  0
XRECORD
  5
8CB5
102
{ACAD_REACTORS
330
8CB4
102
}
330
8CB4
100
AcDbXrecord
280
     1
 40
1.25
  0
XRECORD
  5
8CB6
102
{ACAD_REACTORS
330
8CB4
102
}
330
8CB4
100
AcDbXrecord
280
     1
 40
1.570796326794896
  0
XRECORD
  5
8CB8
102
{ACAD_REACTORS
330
8CB4
102
}
330
8CB4
100
AcDbXrecord
280
     1
340
5F5E
  0
XRECORD
  5
8CB9
102
{ACAD_REACTORS
330
8CB4
102
}
330
8CB4
100
AcDbXrecord
280
     1
340
5F5E
  0
XRECORD
  5
8CB7
102
{ACAD_REACTORS
330
8CB4
102
}
330
8CB4
100
AcDbXrecord
280
     1
340
5F5E
  0
LAYOUT
  5
5F71
102
{ACAD_REACTORS
330
5F63
102
}
330
5F63
100
AcDbPlotSettings
  1

  2
\\192.168.1.64\Canon LBP2900
  4
A4
  6

 40
5.873749732971191
 41
6.805061340332031
 42
5.873748779296875
 43
4.857757568359375
 44
209.9733276367186
 45
296.9259948730469
 46
0.0
 47
0.0
 48
0.0
 49
0.0
140
0.0
141
0.0
142
1.0
143
15.879357507287
 70
 11952
 72
     0
 73
     1
 74
     0
  7

 75
     0
147
0.0629748401055334
 76
     0
 77
     2
 78
   300
148
-27226.80690415248
149
-2266.514499453142
100
AcDbLayout
  1
Model
 70
     1
 71
     0
 10
0.0
 20
0.0
 11
12.0
 21
9.0
 12
0.0
 22
0.0
 32
0.0
 14
0.0
 24
0.0
 34
0.0
 15
0.0
 25
0.0
 35
0.0
146
0.0
 13
0.0
 23
0.0
 33
0.0
 16
1.0
 26
0.0
 36
0.0
 17
0.0
 27
1.0
 37
0.0
 76
     0
330
5F6E
331
5F73
1001
ACAD_PSEXT
1000
\\192.168.1.64\Canon LBP2900
1000
Canon LBP2900
1000
\\192.168.1.64
1000

1070
     0
  0
LAYOUT
  5
5F6D
102
{ACAD_REACTORS
330
5F63
102
}
330
5F63
100
AcDbPlotSettings
  1

  2
\\192.168.1.64\Canon LBP2900
  4

  6

 40
0.0
 41
0.0
 42
0.0
 43
0.0
 44
0.0
 45
0.0
 46
0.0
 47
0.0
 48
0.0
 49
0.0
140
0.0
141
0.0
142
1.0
143
1.0
 70
   688
 72
     0
 73
     0
 74
     5
  7

 75
    16
147
1.0
 76
     0
 77
     2
 78
   300
148
0.0
149
0.0
100
AcDbLayout
  1
布局1
 70
     1
 71
     1
 10
0.0
 20
0.0
 11
12.0
 21
9.0
 12
0.0
 22
0.0
 32
0.0
 14
1.000000000000000E+20
 24
1.000000000000000E+20
 34
1.000000000000000E+20
 15
-1.000000000000000E+20
 25
-1.000000000000000E+20
 35
-1.000000000000000E+20
146
0.0
 13
0.0
 23
0.0
 33
0.0
 16
1.0
 26
0.0
 36
0.0
 17
0.0
 27
1.0
 37
0.0
 76
     0
330
5F6A
  0
MATERIAL
  5
5F13
102
{ACAD_XDICTIONARY
360
5F14
102
}
102
{ACAD_REACTORS
330
5F0A
102
}
330
5F0A
100
AcDbMaterial
  1
ByBlock
 72
     0
 43
0.0208333333333333
 43
0.0
 43
0.0
 43
0.0
 43
0.0
 43
0.0208333333333333
 43
0.0
 43
0.0
 43
0.0
 43
0.0
 43
1.0
 43
0.0
 43
0.0
 43
0.0
 43
0.0
 43
1.0
 77
     0
 47
0.0208333333333333
 47
0.0
 47
0.0
 47
0.0
 47
0.0
 47
0.0208333333333333
 47
0.0
 47
0.0
 47
0.0
 47
0.0
 47
1.0
 47
0.0
 47
0.0
 47
0.0
 47
0.0
 47
1.0
171
     0
 49
0.0208333333333333
 49
0.0
 49
0.0
 49
0.0
 49
0.0
 49
0.0208333333333333
 49
0.0
 49
0.0
 49
0.0
 49
0.0
 49
1.0
 49
0.0
 49
0.0
 49
0.0
 49
0.0
 49
1.0
175
     0
142
0.0208333333333333
142
0.0
142
0.0
142
0.0
142
0.0
142
0.0208333333333333
142
0.0
142
0.0
142
0.0
142
0.0
142
1.0
142
0.0
142
0.0
142
0.0
142
0.0
142
1.0
179
     0
144
0.0208333333333333
144
0.0
144
0.0
144
0.0
144
0.0
144
0.0208333333333333
144
0.0
144
0.0
144
0.0
144
0.0
144
1.0
144
0.0
144
0.0
144
0.0
144
0.0
144
1.0
147
0.0208333333333333
147
0.0
147
0.0
147
0.0
147
0.0
147
0.0208333333333333
147
0.0
147
0.0
147
0.0
147
0.0
147
1.0
147
0.0
147
0.0
147
0.0
147
0.0
147
1.0
  0
MATERIAL
  5
5F0B
102
{ACAD_XDICTIONARY
360
5F0C
102
}
102
{ACAD_REACTORS
330
5F0A
102
}
330
5F0A
100
AcDbMaterial
  1
ByLayer
 72
     0
 43
0.0208333333333333
 43
0.0
 43
0.0
 43
0.0
 43
0.0
 43
0.0208333333333333
 43
0.0
 43
0.0
 43
0.0
 43
0.0
 43
1.0
 43
0.0
 43
0.0
 43
0.0
 43
0.0
 43
1.0
 77
     0
 47
0.0208333333333333
 47
0.0
 47
0.0
 47
0.0
 47
0.0
 47
0.0208333333333333
 47
0.0
 47
0.0
 47
0.0
 47
0.0
 47
1.0
 47
0.0
 47
0.0
 47
0.0
 47
0.0
 47
1.0
171
     0
 49
0.0208333333333333
 49
0.0
 49
0.0
 49
0.0
 49
0.0
 49
0.0208333333333333
 49
0.0
 49
0.0
 49
0.0
 49
0.0
 49
1.0
 49
0.0
 49
0.0
 49
0.0
 49
0.0
 49
1.0
175
     0
142
0.0208333333333333
142
0.0
142
0.0
142
0.0
142
0.0
142
0.0208333333333333
142
0.0
142
0.0
142
0.0
142
0.0
142
1.0
142
0.0
142
0.0
142
0.0
142
0.0
142
1.0
179
     0
144
0.0208333333333333
144
0.0
144
0.0
144
0.0
144
0.0
144
0.0208333333333333
144
0.0
144
0.0
144
0.0
144
0.0
144
1.0
144
0.0
144
0.0
144
0.0
144
0.0
144
1.0
147
0.0208333333333333
147
0.0
147
0.0
147
0.0
147
0.0
147
0.0208333333333333
147
0.0
147
0.0
147
0.0
147
0.0
147
1.0
147
0.0
147
0.0
147
0.0
147
0.0
147
1.0
  0
MATERIAL
  5
5F1B
102
{ACAD_XDICTIONARY
360
5F1C
102
}
102
{ACAD_REACTORS
330
5F0A
102
}
330
5F0A
100
AcDbMaterial
  1
Global
 72
     0
 43
0.0208333333333333
 43
0.0
 43
0.0
 43
0.0
 43
0.0
 43
0.0208333333333333
 43
0.0
 43
0.0
 43
0.0
 43
0.0
 43
1.0
 43
0.0
 43
0.0
 43
0.0
 43
0.0
 43
1.0
 77
     0
 47
0.0208333333333333
 47
0.0
 47
0.0
 47
0.0
 47
0.0
 47
0.0208333333333333
 47
0.0
 47
0.0
 47
0.0
 47
0.0
 47
1.0
 47
0.0
 47
0.0
 47
0.0
 47
0.0
 47
1.0
171
     0
 49
0.0208333333333333
 49
0.0
 49
0.0
 49
0.0
 49
0.0
 49
0.0208333333333333
 49
0.0
 49
0.0
 49
0.0
 49
0.0
 49
1.0
 49
0.0
 49
0.0
 49
0.0
 49
0.0
 49
1.0
175
     0
142
0.0208333333333333
142
0.0
142
0.0
142
0.0
142
0.0
142
0.0208333333333333
142
0.0
142
0.0
142
0.0
142
0.0
142
1.0
142
0.0
142
0.0
142
0.0
142
0.0
142
1.0
179
     0
144
0.0208333333333333
144
0.0
144
0.0
144
0.0
144
0.0
144
0.0208333333333333
144
0.0
144
0.0
144
0.0
144
0.0
144
1.0
144
0.0
144
0.0
144
0.0
144
0.0
144
1.0
147
0.0208333333333333
147
0.0
147
0.0
147
0.0
147
0.0
147
0.0208333333333333
147
0.0
147
0.0
147
0.0
147
0.0
147
1.0
147
0.0
147
0.0
147
0.0
147
0.0
147
1.0
  0
ACAD_PROXY_OBJECT
  5
5F68
102
{ACAD_REACTORS
330
5F67
102
}
330
5F67
100
AcDbProxyObject
 90
      499
 91
      505
 95
  1310743
 70
     1
100
AcDbMLeaderStyle
170
     2
171
     1
172
     0
 90
        2
 40
0.0
 41
0.0
173
     1
 91
-1056964608
340
5F5C
 92
       -2
290
     1
 42
0.09
291
     1
 43
0.36
  3
Standard
 44
0.18
300

342
5F57
174
     1
178
     6
175
     1
176
     0
 93
-1056964608
 45
0.18
292
     0
297
     0
 46
0.18
 94
-1056964608
 47
1.0
 49
1.0
140
1.0
293
     1
141
0.0
294
     1
177
     0
142
1.0
295
     0
296
     0
143
0.125
1001
ACAD_MLEADERVER
1070
     2
  0
MLINESTYLE
  5
5F61
102
{ACAD_REACTORS
330
5F60
102
}
330
5F60
100
AcDbMlineStyle
  2
STANDARD
 70
     0
  3

 62
   256
 51
90.0
 52
90.0
 71
     2
 49
0.5
 62
   256
  6
BYLAYER
 49
-0.5
 62
   256
  6
BYLAYER
  0
ACDBPLACEHOLDER
  5
5F09
102
{ACAD_REACTORS
330
5F08
102
}
330
5F08
  0
ACAD_PROXY_OBJECT
  5
5F35
102
{ACAD_REACTORS
330
5F34
102
}
330
5F34
100
AcDbProxyObject
 90
      499
 91
      503
 95
  1310743
 70
     1
100
AcDbScale
 70
     0
300
1:1
140
1.0
141
1.0
290
     1
  0
ACAD_PROXY_OBJECT
  5
5F36
102
{ACAD_REACTORS
330
5F34
102
}
330
5F34
100
AcDbProxyObject
 90
      499
 91
      503
 95
  1310743
 70
     1
100
AcDbScale
 70
     0
300
1:2
140
1.0
141
2.0
290
     0
  0
ACAD_PROXY_OBJECT
  5
5F37
102
{ACAD_REACTORS
330
5F34
102
}
330
5F34
100
AcDbProxyObject
 90
      499
 91
      503
 95
  1310743
 70
     1
100
AcDbScale
 70
     0
300
1:4
140
1.0
141
4.0
290
     0
  0
ACAD_PROXY_OBJECT
  5
5F38
102
{ACAD_REACTORS
330
5F34
102
}
330
5F34
100
AcDbProxyObject
 90
      499
 91
      503
 95
  1310743
 70
     1
100
AcDbScale
 70
     0
300
1:5
140
1.0
141
5.0
290
     0
  0
ACAD_PROXY_OBJECT
  5
5F39
102
{ACAD_REACTORS
330
5F34
102
}
330
5F34
100
AcDbProxyObject
 90
      499
 91
      503
 95
  1310743
 70
     1
100
AcDbScale
 70
     0
300
1:8
140
1.0
141
8.0
290
     0
  0
ACAD_PROXY_OBJECT
  5
5F3A
102
{ACAD_REACTORS
330
5F34
102
}
330
5F34
100
AcDbProxyObject
 90
      499
 91
      503
 95
  1310743
 70
     1
100
AcDbScale
 70
     0
300
1:10
140
1.0
141
10.0
290
     0
  0
ACAD_PROXY_OBJECT
  5
5F3B
102
{ACAD_REACTORS
330
5F34
102
}
330
5F34
100
AcDbProxyObject
 90
      499
 91
      503
 95
  1310743
 70
     1
100
AcDbScale
 70
     0
300
1:16
140
1.0
141
16.0
290
     0
  0
ACAD_PROXY_OBJECT
  5
5F3C
102
{ACAD_REACTORS
330
5F34
102
}
330
5F34
100
AcDbProxyObject
 90
      499
 91
      503
 95
  1310743
 70
     1
100
AcDbScale
 70
     0
300
1:20
140
1.0
141
20.0
290
     0
  0
ACAD_PROXY_OBJECT
  5
5F3D
102
{ACAD_REACTORS
330
5F34
102
}
330
5F34
100
AcDbProxyObject
 90
      499
 91
      503
 95
  1310743
 70
     1
100
AcDbScale
 70
     0
300
1:30
140
1.0
141
30.0
290
     0
  0
ACAD_PROXY_OBJECT
  5
5F3E
102
{ACAD_REACTORS
330
5F34
102
}
330
5F34
100
AcDbProxyObject
 90
      499
 91
      503
 95
  1310743
 70
     1
100
AcDbScale
 70
     0
300
1:40
140
1.0
141
40.0
290
     0
  0
ACAD_PROXY_OBJECT
  5
5F3F
102
{ACAD_REACTORS
330
5F34
102
}
330
5F34
100
AcDbProxyObject
 90
      499
 91
      503
 95
  1310743
 70
     1
100
AcDbScale
 70
     0
300
1:50
140
1.0
141
50.0
290
     0
  0
ACAD_PROXY_OBJECT
  5
5F40
102
{ACAD_REACTORS
330
5F34
102
}
330
5F34
100
AcDbProxyObject
 90
      499
 91
      503
 95
  1310743
 70
     1
100
AcDbScale
 70
     0
300
1:100
140
1.0
141
100.0
290
     0
  0
ACAD_PROXY_OBJECT
  5
5F41
102
{ACAD_REACTORS
330
5F34
102
}
330
5F34
100
AcDbProxyObject
 90
      499
 91
      503
 95
  1310743
 70
     1
100
AcDbScale
 70
     0
300
2:1
140
2.0
141
1.0
290
     0
  0
ACAD_PROXY_OBJECT
  5
5F42
102
{ACAD_REACTORS
330
5F34
102
}
330
5F34
100
AcDbProxyObject
 90
      499
 91
      503
 95
  1310743
 70
     1
100
AcDbScale
 70
     0
300
4:1
140
4.0
141
1.0
290
     0
  0
ACAD_PROXY_OBJECT
  5
5F43
102
{ACAD_REACTORS
330
5F34
102
}
330
5F34
100
AcDbProxyObject
 90
      499
 91
      503
 95
  1310743
 70
     1
100
AcDbScale
 70
     0
300
8:1
140
8.0
141
1.0
290
     0
  0
ACAD_PROXY_OBJECT
  5
5F44
102
{ACAD_REACTORS
330
5F34
102
}
330
5F34
100
AcDbProxyObject
 90
      499
 91
      503
 95
  1310743
 70
     1
100
AcDbScale
 70
     0
300
10:1
140
10.0
141
1.0
290
     0
  0
ACAD_PROXY_OBJECT
  5
5F45
102
{ACAD_REACTORS
330
5F34
102
}
330
5F34
100
AcDbProxyObject
 90
      499
 91
      503
 95
  1310743
 70
     1
100
AcDbScale
 70
     0
300
100:1
140
100.0
141
1.0
290
     0
  0
ACAD_PROXY_OBJECT
  5
5F46
102
{ACAD_REACTORS
330
5F34
102
}
330
5F34
100
AcDbProxyObject
 90
      499
 91
      503
 95
  1310743
 70
     1
100
AcDbScale
 70
     0
300
1/128" = 1'-0"
140
0.0078125
141
12.0
290
     0
  0
ACAD_PROXY_OBJECT
  5
5F47
102
{ACAD_REACTORS
330
5F34
102
}
330
5F34
100
AcDbProxyObject
 90
      499
 91
      503
 95
  1310743
 70
     1
100
AcDbScale
 70
     0
300
1/64" = 1'-0"
140
0.015625
141
12.0
290
     0
  0
ACAD_PROXY_OBJECT
  5
5F48
102
{ACAD_REACTORS
330
5F34
102
}
330
5F34
100
AcDbProxyObject
 90
      499
 91
      503
 95
  1310743
 70
     1
100
AcDbScale
 70
     0
300
1/32" = 1'-0"
140
0.03125
141
12.0
290
     0
  0
ACAD_PROXY_OBJECT
  5
5F49
102
{ACAD_REACTORS
330
5F34
102
}
330
5F34
100
AcDbProxyObject
 90
      499
 91
      503
 95
  1310743
 70
     1
100
AcDbScale
 70
     0
300
1/16" = 1'-0"
140
0.0625
141
12.0
290
     0
  0
ACAD_PROXY_OBJECT
  5
5F4A
102
{ACAD_REACTORS
330
5F34
102
}
330
5F34
100
AcDbProxyObject
 90
      499
 91
      503
 95
  1310743
 70
     1
100
AcDbScale
 70
     0
300
3/32" = 1'-0"
140
0.09375
141
12.0
290
     0
  0
ACAD_PROXY_OBJECT
  5
5F4B
102
{ACAD_REACTORS
330
5F34
102
}
330
5F34
100
AcDbProxyObject
 90
      499
 91
      503
 95
  1310743
 70
     1
100
AcDbScale
 70
     0
300
1/8" = 1'-0"
140
0.125
141
12.0
290
     0
  0
ACAD_PROXY_OBJECT
  5
5F4C
102
{ACAD_REACTORS
330
5F34
102
}
330
5F34
100
AcDbProxyObject
 90
      499
 91
      503
 95
  1310743
 70
     1
100
AcDbScale
 70
     0
300
3/16" = 1'-0"
140
0.1875
141
12.0
290
     0
  0
ACAD_PROXY_OBJECT
  5
5F4D
102
{ACAD_REACTORS
330
5F34
102
}
330
5F34
100
AcDbProxyObject
 90
      499
 91
      503
 95
  1310743
 70
     1
100
AcDbScale
 70
     0
300
1/4" = 1'-0"
140
0.25
141
12.0
290
     0
  0
ACAD_PROXY_OBJECT
  5
5F4E
102
{ACAD_REACTORS
330
5F34
102
}
330
5F34
100
AcDbProxyObject
 90
      499
 91
      503
 95
  1310743
 70
     1
100
AcDbScale
 70
     0
300
3/8" = 1'-0"
140
0.375
141
12.0
290
     0
  0
ACAD_PROXY_OBJECT
  5
5F4F
102
{ACAD_REACTORS
330
5F34
102
}
330
5F34
100
AcDbProxyObject
 90
      499
 91
      503
 95
  1310743
 70
     1
100
AcDbScale
 70
     0
300
1/2" = 1'-0"
140
0.5
141
12.0
290
     0
  0
ACAD_PROXY_OBJECT
  5
5F50
102
{ACAD_REACTORS
330
5F34
102
}
330
5F34
100
AcDbProxyObject
 90
      499
 91
      503
 95
  1310743
 70
     1
100
AcDbScale
 70
     0
300
3/4" = 1'-0"
140
0.75
141
12.0
290
     0
  0
ACAD_PROXY_OBJECT
  5
5F51
102
{ACAD_REACTORS
330
5F34
102
}
330
5F34
100
AcDbProxyObject
 90
      499
 91
      503
 95
  1310743
 70
     1
100
AcDbScale
 70
     0
300
1" = 1'-0"
140
1.0
141
12.0
290
     0
  0
ACAD_PROXY_OBJECT
  5
5F52
102
{ACAD_REACTORS
330
5F34
102
}
330
5F34
100
AcDbProxyObject
 90
      499
 91
      503
 95
  1310743
 70
     1
100
AcDbScale
 70
     0
300
1-1/2" = 1'-0"
140
1.5
141
12.0
290
     0
  0
ACAD_PROXY_OBJECT
  5
5F53
102
{ACAD_REACTORS
330
5F34
102
}
330
5F34
100
AcDbProxyObject
 90
      499
 91
      503
 95
  1310743
 70
     1
100
AcDbScale
 70
     0
300
3" = 1'-0"
140
3.0
141
12.0
290
     0
  0
ACAD_PROXY_OBJECT
  5
5F54
102
{ACAD_REACTORS
330
5F34
102
}
330
5F34
100
AcDbProxyObject
 90
      499
 91
      503
 95
  1310743
 70
     1
100
AcDbScale
 70
     0
300
6" = 1'-0"
140
6.0
141
12.0
290
     0
  0
ACAD_PROXY_OBJECT
  5
5F55
102
{ACAD_REACTORS
330
5F34
102
}
330
5F34
100
AcDbProxyObject
 90
      499
 91
      503
 95
  1310743
 70
     1
100
AcDbScale
 70
     0
300
1'-0" = 1'-0"
140
12.0
141
12.0
290
     0
  0
TABLESTYLE
  5
5F66
102
{ACAD_XDICTIONARY
360
6F6E
102
}
102
{ACAD_REACTORS
330
5F65
102
}
330
5F65
100
AcDbTableStyle
  3
Standard
 70
     0
 71
     0
 40
0.06
 41
0.06
280
     0
281
     0
  7
STANDARD
140
0.18
170
     2
 62
     0
 63
     7
283
     0
274
    -2
284
     1
 64
     0
275
    -2
285
     1
 65
     0
276
    -2
286
     1
 66
     0
277
    -2
287
     1
 67
     0
278
    -2
288
     1
 68
     0
279
    -2
289
     1
 69
     0
  7
STANDARD
140
0.25
170
     5
 62
     0
 63
     7
283
     0
274
    -2
284
     1
 64
     0
275
    -2
285
     1
 65
     0
276
    -2
286
     1
 66
     0
277
    -2
287
     1
 67
     0
278
    -2
288
     1
 68
     0
279
    -2
289
     1
 69
     0
  7
STANDARD
140
0.18
170
     5
 62
     0
 63
     7
283
     0
274
    -2
284
     1
 64
     0
275
    -2
285
     1
 65
     0
276
    -2
286
     1
 66
     0
277
    -2
287
     1
 67
     0
278
    -2
288
     1
 68
     0
279
    -2
289
     1
 69
     0
  0
VISUALSTYLE
  5
5F29
102
{ACAD_REACTORS
330
5F23
102
}
330
5F23
100
AcDbVisualStyle
  2
2dWireframe
 70
     4
 71
     0
 72
     2
 73
     0
 90
        0
 40
-0.6
 41
-30.0
 62
     5
 63
     7
 74
     1
 91
        4
 64
     7
 65
   257
 75
     1
175
     1
 42
1.0
 92
        0
 66
   257
 43
1.0
 76
     1
 77
     6
 78
     2
 67
     7
 79
     5
170
     0
171
     0
290
     0
174
     0
 93
        1
 44
0.0
173
     0
291
     0
 45
0.0
1001
ACAD
1000
AcDbSavedByObjectVersion
1070
     0
1000
AcDbSavedByObjectVersion
1070
     0
1000
AcDbSavedByObjectVersion
1070
     0
1000
AcDbSavedByObjectVersion
1070
     0
1000
AcDbSavedByObjectVersion
1070
     0
1000
AcDbSavedByObjectVersion
1070
     0
  0
VISUALSTYLE
  5
5F2B
102
{ACAD_REACTORS
330
5F23
102
}
330
5F23
100
AcDbVisualStyle
  2
3D Hidden
 70
     6
 71
     1
 72
     2
 73
     2
 90
        0
 40
-0.6
 41
-30.0
 62
     5
 63
     7
 74
     2
 91
        2
 64
     7
 65
   257
 75
     2
175
     1
 42
40.0
 92
        0
 66
   257
 43
1.0
 76
     1
 77
     6
 78
     2
 67
     7
 79
     3
170
     0
171
     0
290
     0
174
     0
 93
        1
 44
0.0
173
     0
291
     0
 45
0.0
1001
ACAD
1000
AcDbSavedByObjectVersion
1070
     0
1000
AcDbSavedByObjectVersion
1070
     0
1000
AcDbSavedByObjectVersion
1070
     0
1000
AcDbSavedByObjectVersion
1070
     0
1000
AcDbSavedByObjectVersion
1070
     0
1000
AcDbSavedByObjectVersion
1070
     0
  0
VISUALSTYLE
  5
5F2A
102
{ACAD_REACTORS
330
5F23
102
}
330
5F23
100
AcDbVisualStyle
  2
3dWireframe
 70
     5
 71
     0
 72
     2
 73
     0
 90
        0
 40
-0.6
 41
-30.0
 62
     5
 63
     7
 74
     1
 91
        4
 64
     7
 65
   257
 75
     1
175
     1
 42
1.0
 92
        0
 66
   257
 43
1.0
 76
     1
 77
     6
 78
     2
 67
     7
 79
     5
170
     0
171
     0
290
     0
174
     0
 93
        1
 44
0.0
173
     0
291
     0
 45
0.0
1001
ACAD
1000
AcDbSavedByObjectVersion
1070
     0
1000
AcDbSavedByObjectVersion
1070
     0
1000
AcDbSavedByObjectVersion
1070
     0
1000
AcDbSavedByObjectVersion
1070
     0
1000
AcDbSavedByObjectVersion
1070
     0
1000
AcDbSavedByObjectVersion
1070
     0
  0
VISUALSTYLE
  5
5F28
102
{ACAD_REACTORS
330
5F23
102
}
330
5F23
100
AcDbVisualStyle
  2
Basic
 70
     7
 71
     1
 72
     0
 73
     1
 90
        0
 40
-0.6
 41
-30.0
 62
     5
 63
     7
 74
     0
 91
        4
 64
     7
 65
   257
 75
     1
175
     1
 42
1.0
 92
        8
 66
     7
 43
1.0
 76
     1
 77
     6
 78
     2
 67
     7
 79
     5
170
     0
171
     0
290
     0
174
     0
 93
        1
 44
0.0
173
     0
291
     1
 45
0.0
1001
ACAD
1000
AcDbSavedByObjectVersion
1070
     0
1000
AcDbSavedByObjectVersion
1070
     0
1000
AcDbSavedByObjectVersion
1070
     0
1000
AcDbSavedByObjectVersion
1070
     0
1000
AcDbSavedByObjectVersion
1070
     0
1000
AcDbSavedByObjectVersion
1070
     0
  0
VISUALSTYLE
  5
5F2F
102
{ACAD_REACTORS
330
5F23
102
}
330
5F23
100
AcDbVisualStyle
  2
Brighten
 70
    12
 71
     2
 72
     2
 73
     0
 90
        0
 40
-0.6
 41
-30.0
 62
     5
 63
     7
 74
     1
 91
        4
 64
     7
 65
   257
 75
     1
175
     1
 42
1.0
 92
        8
 66
     7
 43
1.0
 76
     1
 77
     6
 78
     2
 67
     7
 79
     5
170
     0
171
     0
290
     0
174
     0
 93
        1
 44
50.0
173
     0
291
     1
 45
0.0
1001
ACAD
1000
AcDbSavedByObjectVersion
1070
     0
1000
AcDbSavedByObjectVersion
1070
     0
1000
AcDbSavedByObjectVersion
1070
     0
1000
AcDbSavedByObjectVersion
1070
     0
1000
AcDbSavedByObjectVersion
1070
     0
1000
AcDbSavedByObjectVersion
1070
     0
  0
VISUALSTYLE
  5
5F33
102
{ACAD_REACTORS
330
5F23
102
}
330
5F23
100
AcDbVisualStyle
  2
ColorChange
 70
    16
 71
     2
 72
     2
 73
     3
 90
        0
 40
-0.6
 41
-30.0
 62
     5
 63
     8
 74
     1
 91
        4
 64
     7
 65
   257
 75
     1
175
     1
 42
1.0
 92
        8
 66
     8
 43
1.0
 76
     1
 77
     6
 78
     2
 67
     7
 79
     5
170
     0
171
     0
290
     0
174
     0
 93
        1
 44
0.0
173
     0
291
     1
 45
0.0
1001
ACAD
1000
AcDbSavedByObjectVersion
1070
     0
1000
AcDbSavedByObjectVersion
1070
     0
1000
AcDbSavedByObjectVersion
1070
     0
1000
AcDbSavedByObjectVersion
1070
     0
1000
AcDbSavedByObjectVersion
1070
     0
1000
AcDbSavedByObjectVersion
1070
     0
  0
VISUALSTYLE
  5
5F2C
102
{ACAD_REACTORS
330
5F23
102
}
330
5F23
100
AcDbVisualStyle
  2
Conceptual
 70
     9
 71
     3
 72
     2
 73
     0
 90
        0
 40
-0.6
 41
-30.0
 62
     5
 63
     7
 74
     2
 91
        2
 64
     7
 65
   257
 75
     1
175
     1
 42
40.0
 92
        8
 66
     7
 43
1.0
 76
     1
 77
     6
 78
     2
 67
     7
 79
     3
170
     0
171
     0
290
     0
174
     0
 93
        1
 44
0.0
173
     0
291
     0
 45
0.0
1001
ACAD
1000
AcDbSavedByObjectVersion
1070
     0
1000
AcDbSavedByObjectVersion
1070
     0
1000
AcDbSavedByObjectVersion
1070
     0
1000
AcDbSavedByObjectVersion
1070
     0
1000
AcDbSavedByObjectVersion
1070
     0
1000
AcDbSavedByObjectVersion
1070
     0
  0
VISUALSTYLE
  5
5F2E
102
{ACAD_REACTORS
330
5F23
102
}
330
5F23
100
AcDbVisualStyle
  2
Dim
 70
    11
 71
     2
 72
     2
 73
     0
 90
        0
 40
-0.6
 41
-30.0
 62
     5
 63
     7
 74
     1
 91
        4
 64
     7
 65
   257
 75
     1
175
     1
 42
1.0
 92
        8
 66
     7
 43
1.0
 76
     1
 77
     6
 78
     2
 67
     7
 79
     5
170
     0
171
     0
290
     0
174
     0
 93
        1
 44
-50.0
173
     0
291
     1
 45
0.0
1001
ACAD
1000
AcDbSavedByObjectVersion
1070
     0
1000
AcDbSavedByObjectVersion
1070
     0
1000
AcDbSavedByObjectVersion
1070
     0
1000
AcDbSavedByObjectVersion
1070
     0
1000
AcDbSavedByObjectVersion
1070
     0
1000
AcDbSavedByObjectVersion
1070
     0
  0
VISUALSTYLE
  5
5F32
102
{ACAD_REACTORS
330
5F23
102
}
330
5F23
100
AcDbVisualStyle
  2
Facepattern
 70
    15
 71
     2
 72
     2
 73
     0
 90
        0
 40
-0.6
 41
-30.0
 62
     5
 63
     7
 74
     1
 91
        4
 64
     7
 65
   257
 75
     1
175
     1
 42
1.0
 92
        8
 66
     7
 43
1.0
 76
     1
 77
     6
 78
     2
 67
     7
 79
     5
170
     0
171
     0
290
     0
174
     0
 93
        1
 44
0.0
173
     0
291
     1
 45
0.0
1001
ACAD
1000
AcDbSavedByObjectVersion
1070
     0
1000
AcDbSavedByObjectVersion
1070
     0
1000
AcDbSavedByObjectVersion
1070
     0
1000
AcDbSavedByObjectVersion
1070
     0
1000
AcDbSavedByObjectVersion
1070
     0
1000
AcDbSavedByObjectVersion
1070
     0
  0
VISUALSTYLE
  5
5F24
102
{ACAD_REACTORS
330
5F23
102
}
330
5F23
100
AcDbVisualStyle
  2
Flat
 70
     0
 71
     2
 72
     1
 73
     1
 90
        2
 40
-0.6
 41
30.0
 62
     5
 63
     7
 74
     0
 91
        4
 64
     7
 65
   257
 75
     1
175
     1
 42
1.0
 92
        8
 66
     7
 43
1.0
 76
     1
 77
     6
 78
     2
 67
     7
 79
     5
170
     0
171
     0
290
     0
174
     0
 93
       13
 44
0.0
173
     0
291
     1
 45
0.0
1001
ACAD
1000
AcDbSavedByObjectVersion
1070
     0
1000
AcDbSavedByObjectVersion
1070
     0
1000
AcDbSavedByObjectVersion
1070
     0
1000
AcDbSavedByObjectVersion
1070
     0
1000
AcDbSavedByObjectVersion
1070
     0
1000
AcDbSavedByObjectVersion
1070
     0
  0
VISUALSTYLE
  5
5F25
102
{ACAD_REACTORS
330
5F23
102
}
330
5F23
100
AcDbVisualStyle
  2
FlatWithEdges
 70
     1
 71
     2
 72
     1
 73
     1
 90
        2
 40
-0.6
 41
30.0
 62
     5
 63
     7
 74
     1
 91
        4
 64
     7
 65
   257
 75
     1
175
     1
 42
1.0
 92
        0
 66
   257
 43
1.0
 76
     1
 77
     6
 78
     2
 67
     7
 79
     5
170
     0
171
     0
290
     0
174
     0
 93
       13
 44
0.0
173
     0
291
     1
 45
0.0
1001
ACAD
1000
AcDbSavedByObjectVersion
1070
     0
1000
AcDbSavedByObjectVersion
1070
     0
1000
AcDbSavedByObjectVersion
1070
     0
1000
AcDbSavedByObjectVersion
1070
     0
1000
AcDbSavedByObjectVersion
1070
     0
1000
AcDbSavedByObjectVersion
1070
     0
  0
VISUALSTYLE
  5
5F26
102
{ACAD_REACTORS
330
5F23
102
}
330
5F23
100
AcDbVisualStyle
  2
Gouraud
 70
     2
 71
     2
 72
     2
 73
     1
 90
        2
 40
-0.6
 41
30.0
 62
     5
 63
     7
 74
     0
 91
        4
 64
     7
 65
   257
 75
     1
175
     1
 42
1.0
 92
        0
 66
     7
 43
1.0
 76
     1
 77
     6
 78
     2
 67
     7
 79
     5
170
     0
171
     0
290
     0
174
     0
 93
       13
 44
0.0
173
     0
291
     1
 45
0.0
1001
ACAD
1000
AcDbSavedByObjectVersion
1070
     0
1000
AcDbSavedByObjectVersion
1070
     0
1000
AcDbSavedByObjectVersion
1070
     0
1000
AcDbSavedByObjectVersion
1070
     0
1000
AcDbSavedByObjectVersion
1070
     0
1000
AcDbSavedByObjectVersion
1070
     0
  0
VISUALSTYLE
  5
5F27
102
{ACAD_REACTORS
330
5F23
102
}
330
5F23
100
AcDbVisualStyle
  2
GouraudWithEdges
 70
     3
 71
     2
 72
     2
 73
     1
 90
        2
 40
-0.6
 41
30.0
 62
     5
 63
     7
 74
     1
 91
        4
 64
     7
 65
   257
 75
     1
175
     1
 42
1.0
 92
        0
 66
   257
 43
1.0
 76
     1
 77
     6
 78
     2
 67
     7
 79
     5
170
     0
171
     0
290
     0
174
     0
 93
       13
 44
0.0
173
     0
291
     1
 45
0.0
1001
ACAD
1000
AcDbSavedByObjectVersion
1070
     0
1000
AcDbSavedByObjectVersion
1070
     0
1000
AcDbSavedByObjectVersion
1070
     0
1000
AcDbSavedByObjectVersion
1070
     0
1000
AcDbSavedByObjectVersion
1070
     0
1000
AcDbSavedByObjectVersion
1070
     0
  0
VISUALSTYLE
  5
5F31
102
{ACAD_REACTORS
330
5F23
102
}
330
5F23
100
AcDbVisualStyle
  2
Linepattern
 70
    14
 71
     2
 72
     2
 73
     0
 90
        0
 40
-0.6
 41
-30.0
 62
     5
 63
     7
 74
     1
 91
        4
 64
     7
 65
   257
 75
     7
175
     7
 42
1.0
 92
        8
 66
     7
 43
1.0
 76
     1
 77
     6
 78
     2
 67
     7
 79
     5
170
     0
171
     0
290
     0
174
     0
 93
        1
 44
0.0
173
     0
291
     1
 45
0.0
1001
ACAD
1000
AcDbSavedByObjectVersion
1070
     0
1000
AcDbSavedByObjectVersion
1070
     0
1000
AcDbSavedByObjectVersion
1070
     0
1000
AcDbSavedByObjectVersion
1070
     0
1000
AcDbSavedByObjectVersion
1070
     0
1000
AcDbSavedByObjectVersion
1070
     0
  0
VISUALSTYLE
  5
5F2D
102
{ACAD_REACTORS
330
5F23
102
}
330
5F23
100
AcDbVisualStyle
  2
Realistic
 70
     8
 71
     2
 72
     2
 73
     0
 90
        0
 40
-0.6
 41
-30.0
 62
     5
 63
     7
 74
     1
 91
        0
 64
     7
 65
   257
 75
     1
175
     1
 42
1.0
 92
        8
 66
     8
 43
1.0
 76
     1
 77
     6
 78
     2
 67
     7
 79
     5
170
     0
171
     0
290
     0
174
     0
 93
       13
 44
0.0
173
     0
291
     0
 45
0.0
1001
ACAD
1000
AcDbSavedByObjectVersion
1070
     0
1000
AcDbSavedByObjectVersion
1070
     0
1000
AcDbSavedByObjectVersion
1070
     0
1000
AcDbSavedByObjectVersion
1070
     0
1000
AcDbSavedByObjectVersion
1070
     0
1000
AcDbSavedByObjectVersion
1070
     0
  0
VISUALSTYLE
  5
5F30
102
{ACAD_REACTORS
330
5F23
102
}
330
5F23
100
AcDbVisualStyle
  2
Thicken
 70
    13
 71
     2
 72
     2
 73
     0
 90
        0
 40
-0.6
 41
-30.0
 62
     5
 63
     7
 74
     1
 91
        4
 64
     7
 65
   257
 75
     1
175
     1
 42
1.0
 92
       12
 66
     7
 43
1.0
 76
     1
 77
     6
 78
     2
 67
     7
 79
     5
170
     0
171
     0
290
     0
174
     0
 93
        1
 44
0.0
173
     0
291
     1
 45
0.0
1001
ACAD
1000
AcDbSavedByObjectVersion
1070
     0
1000
AcDbSavedByObjectVersion
1070
     0
1000
AcDbSavedByObjectVersion
1070
     0
1000
AcDbSavedByObjectVersion
1070
     0
1000
AcDbSavedByObjectVersion
1070
     0
1000
AcDbSavedByObjectVersion
1070
     0
  0
DICTIONARYVAR
  5
6105
102
{ACAD_REACTORS
330
6102
102
}
330
6102
100
DictionaryVariables
280
     0
  1
1:1
  0
DICTIONARYVAR
  5
6104
102
{ACAD_REACTORS
330
6102
102
}
330
6102
100
DictionaryVariables
280
     0
  1
STANDARD
  0
DICTIONARYVAR
  5
6103
102
{ACAD_REACTORS
330
6102
102
}
330
6102
100
DictionaryVariables
280
     0
  1
STANDARD
  0
DICTIONARYVAR
  5
6108
102
{ACAD_REACTORS
330
6102
102
}
330
6102
100
DictionaryVariables
280
     0
  1
1
  0
DICTIONARYVAR
  5
6107
102
{ACAD_REACTORS
330
6102
102
}
330
6102
100
DictionaryVariables
280
     0
  1
0
  0
DICTIONARYVAR
  5
6106
102
{ACAD_REACTORS
330
6102
102
}
330
6102
100
DictionaryVariables
280
     0
  1
127
  0
VLO-VL
  5
60F3
102
{ACAD_REACTORS
330
60F2
102
}
330
60F2
100
vlo_VL
 90
   -64512
 91
       12
 92
        1
 40
2.5
300
(&VLO-R . 0)
  0
DICTIONARY
  5
5F14
330
5F13
100
AcDbDictionary
280
     1
281
     1
  3
ACAD_XREC_ROUNDTRIP
360
6F73
  3
BUMPTILE
360
5F16
  3
DIFFUSETILE
360
5F15
  3
OPACITYTILE
360
5F19
  3
REFLECTIONTILE
360
5F18
  3
REFRACTIONTILE
360
5F1A
  3
SPECULARTILE
360
5F17
  0
DICTIONARY
  5
5F0C
330
5F0B
100
AcDbDictionary
280
     1
281
     1
  3
ACAD_XREC_ROUNDTRIP
360
6F72
  3
BUMPTILE
360
5F0E
  3
DIFFUSETILE
360
5F0D
  3
OPACITYTILE
360
5F11
  3
REFLECTIONTILE
360
5F10
  3
REFRACTIONTILE
360
5F12
  3
SPECULARTILE
360
5F0F
  0
DICTIONARY
  5
5F1C
330
5F1B
100
AcDbDictionary
280
     1
281
     1
  3
ACAD_XREC_ROUNDTRIP
360
6F74
  3
BUMPTILE
360
5F1E
  3
DIFFUSETILE
360
5F1D
  3
OPACITYTILE
360
5F21
  3
REFLECTIONTILE
360
5F20
  3
REFRACTIONTILE
360
5F22
  3
SPECULARTILE
360
5F1F
  0
DICTIONARY
  5
6F6E
330
5F66
100
AcDbDictionary
280
     1
281
     1
  3
ACAD_ROUNDTRIP_2008_TABLESTYLE_CELLSTYLEMAP
360
8BD6
  3
ACAD_XREC_ROUNDTRIP
360
8CBA
  0
XRECORD
  5
6F73
102
{ACAD_REACTORS
330
5F14
102
}
330
5F14
100
AcDbXrecord
280
     1
102
MATERIAL
148
0.0
149
0.0
149
0.0
 93
        0
 94
       63
282
     0
 72
     0
 77
     0
171
     0
175
     0
179
     0
273
     0
  0
XRECORD
  5
5F16
102
{ACAD_REACTORS
330
5F14
102
}
330
5F14
100
AcDbXrecord
280
     1
270
     1
271
     1
  0
XRECORD
  5
5F15
102
{ACAD_REACTORS
330
5F14
102
}
330
5F14
100
AcDbXrecord
280
     1
270
     1
271
     1
  0
XRECORD
  5
5F19
102
{ACAD_REACTORS
330
5F14
102
}
330
5F14
100
AcDbXrecord
280
     1
270
     1
271
     1
  0
XRECORD
  5
5F18
102
{ACAD_REACTORS
330
5F14
102
}
330
5F14
100
AcDbXrecord
280
     1
270
     1
271
     1
  0
XRECORD
  5
5F1A
102
{ACAD_REACTORS
330
5F14
102
}
330
5F14
100
AcDbXrecord
280
     1
270
     1
271
     1
  0
XRECORD
  5
5F17
102
{ACAD_REACTORS
330
5F14
102
}
330
5F14
100
AcDbXrecord
280
     1
270
     1
271
     1
  0
XRECORD
  5
6F72
102
{ACAD_REACTORS
330
5F0C
102
}
330
5F0C
100
AcDbXrecord
280
     1
102
MATERIAL
148
0.0
149
0.0
149
0.0
 93
        0
 94
       63
282
     0
 72
     0
 77
     0
171
     0
175
     0
179
     0
273
     0
  0
XRECORD
  5
5F0E
102
{ACAD_REACTORS
330
5F0C
102
}
330
5F0C
100
AcDbXrecord
280
     1
270
     1
271
     1
  0
XRECORD
  5
5F0D
102
{ACAD_REACTORS
330
5F0C
102
}
330
5F0C
100
AcDbXrecord
280
     1
270
     1
271
     1
  0
XRECORD
  5
5F11
102
{ACAD_REACTORS
330
5F0C
102
}
330
5F0C
100
AcDbXrecord
280
     1
270
     1
271
     1
  0
XRECORD
  5
5F10
102
{ACAD_REACTORS
330
5F0C
102
}
330
5F0C
100
AcDbXrecord
280
     1
270
     1
271
     1
  0
XRECORD
  5
5F12
102
{ACAD_REACTORS
330
5F0C
102
}
330
5F0C
100
AcDbXrecord
280
     1
270
     1
271
     1
  0
XRECORD
  5
5F0F
102
{ACAD_REACTORS
330
5F0C
102
}
330
5F0C
100
AcDbXrecord
280
     1
270
     1
271
     1
  0
XRECORD
  5
6F74
102
{ACAD_REACTORS
330
5F1C
102
}
330
5F1C
100
AcDbXrecord
280
     1
102
MATERIAL
148
0.0
149
0.0
149
0.0
 93
        0
 94
       63
282
     0
 72
     0
 77
     0
171
     0
175
     0
179
     0
273
     0
  0
XRECORD
  5
5F1E
102
{ACAD_REACTORS
330
5F1C
102
}
330
5F1C
100
AcDbXrecord
280
     1
270
     1
271
     1
  0
XRECORD
  5
5F1D
102
{ACAD_REACTORS
330
5F1C
102
}
330
5F1C
100
AcDbXrecord
280
     1
270
     1
271
     1
  0
XRECORD
  5
5F21
102
{ACAD_REACTORS
330
5F1C
102
}
330
5F1C
100
AcDbXrecord
280
     1
270
     1
271
     1
  0
XRECORD
  5
5F20
102
{ACAD_REACTORS
330
5F1C
102
}
330
5F1C
100
AcDbXrecord
280
     1
270
     1
271
     1
  0
XRECORD
  5
5F22
102
{ACAD_REACTORS
330
5F1C
102
}
330
5F1C
100
AcDbXrecord
280
     1
270
     1
271
     1
  0
XRECORD
  5
5F1F
102
{ACAD_REACTORS
330
5F1C
102
}
330
5F1C
100
AcDbXrecord
280
     1
270
     1
271
     1
  0
ACAD_PROXY_OBJECT
  5
8BD6
102
{ACAD_REACTORS
330
6F6E
102
}
330
6F6E
100
AcDbProxyObject
 90
      499
 91
      508
 95
  1310743
 70
     1
100
AcDbCellStyleMap
 90
        3
300
CELLSTYLE
  1
TABLEFORMAT_BEGIN
 90
        5
170
     1
 91
        0
 92
    32768
 62
   257
 93
        1
300
CONTENTFORMAT
  1
CONTENTFORMAT_BEGIN
 90
        0
 91
        0
 92
      512
 93
        0
300

 40
0.0
140
1.0
 94
        5
 62
     0
340
5F57
144
0.25
309
CONTENTFORMAT_END
171
     1
301
MARGIN
  1
CELLMARGIN_BEGIN
 40
0.06
 40
0.06
 40
0.06
 40
0.06
 40
0.18
 40
0.18
309
CELLMARGIN_END
 94
        6
 95
        1
302
GRIDFORMAT
  1
GRIDFORMAT_BEGIN
 90
        0
 91
        1
 62
     0
 92
       -2
340
0
 93
        0
 40
0.045
309
GRIDFORMAT_END
 95
        2
302
GRIDFORMAT
  1
GRIDFORMAT_BEGIN
 90
        0
 91
        1
 62
     0
 92
       -2
340
0
 93
        0
 40
0.045
309
GRIDFORMAT_END
 95
        4
302
GRIDFORMAT
  1
GRIDFORMAT_BEGIN
 90
        0
 91
        1
 62
     0
 92
       -2
340
0
 93
        0
 40
0.045
309
GRIDFORMAT_END
 95
        8
302
GRIDFORMAT
  1
GRIDFORMAT_BEGIN
 90
        0
 91
        1
 62
     0
 92
       -2
340
0
 93
        0
 40
0.045
309
GRIDFORMAT_END
 95
       16
302
GRIDFORMAT
  1
GRIDFORMAT_BEGIN
 90
        0
 91
        1
 62
     0
 92
       -2
340
0
 93
        0
 40
0.045
309
GRIDFORMAT_END
 95
       32
302
GRIDFORMAT
  1
GRIDFORMAT_BEGIN
 90
        0
 91
        1
 62
     0
 92
       -2
340
0
 93
        0
 40
0.045
309
GRIDFORMAT_END
309
TABLEFORMAT_END
  1
CELLSTYLE_BEGIN
 90
        1
 91
        1
300
_TITLE
309
CELLSTYLE_END
300
CELLSTYLE
  1
TABLEFORMAT_BEGIN
 90
        5
170
     1
 91
        0
 92
        0
 62
   257
 93
        1
300
CONTENTFORMAT
  1
CONTENTFORMAT_BEGIN
 90
        0
 91
        0
 92
      512
 93
        0
300

 40
0.0
140
1.0
 94
        5
 62
     0
340
5F57
144
0.18
309
CONTENTFORMAT_END
171
     1
301
MARGIN
  1
CELLMARGIN_BEGIN
 40
0.06
 40
0.06
 40
0.06
 40
0.06
 40
0.18
 40
0.18
309
CELLMARGIN_END
 94
        6
 95
        1
302
GRIDFORMAT
  1
GRIDFORMAT_BEGIN
 90
        0
 91
        1
 62
     0
 92
       -2
340
0
 93
        0
 40
0.045
309
GRIDFORMAT_END
 95
        2
302
GRIDFORMAT
  1
GRIDFORMAT_BEGIN
 90
        0
 91
        1
 62
     0
 92
       -2
340
0
 93
        0
 40
0.045
309
GRIDFORMAT_END
 95
        4
302
GRIDFORMAT
  1
GRIDFORMAT_BEGIN
 90
        0
 91
        1
 62
     0
 92
       -2
340
0
 93
        0
 40
0.045
309
GRIDFORMAT_END
 95
        8
302
GRIDFORMAT
  1
GRIDFORMAT_BEGIN
 90
        0
 91
        1
 62
     0
 92
       -2
340
0
 93
        0
 40
0.045
309
GRIDFORMAT_END
 95
       16
302
GRIDFORMAT
  1
GRIDFORMAT_BEGIN
 90
        0
 91
        1
 62
     0
 92
       -2
340
0
 93
        0
 40
0.045
309
GRIDFORMAT_END
 95
       32
302
GRIDFORMAT
  1
GRIDFORMAT_BEGIN
 90
        0
 91
        1
 62
     0
 92
       -2
340
0
 93
        0
 40
0.045
309
GRIDFORMAT_END
309
TABLEFORMAT_END
  1
CELLSTYLE_BEGIN
 90
        2
 91
        1
300
_HEADER
309
CELLSTYLE_END
300
CELLSTYLE
  1
TABLEFORMAT_BEGIN
 90
        5
170
     1
 91
        0
 92
        0
 62
   257
 93
        1
300
CONTENTFORMAT
  1
CONTENTFORMAT_BEGIN
 90
        0
 91
        0
 92
      512
 93
        0
300

 40
0.0
140
1.0
 94
        2
 62
     0
340
5F57
144
0.18
309
CONTENTFORMAT_END
171
     1
301
MARGIN
  1
CELLMARGIN_BEGIN
 40
0.06
 40
0.06
 40
0.06
 40
0.06
 40
0.18
 40
0.18
309
CELLMARGIN_END
 94
        6
 95
        1
302
GRIDFORMAT
  1
GRIDFORMAT_BEGIN
 90
        0
 91
        1
 62
     0
 92
       -2
340
0
 93
        0
 40
0.045
309
GRIDFORMAT_END
 95
        2
302
GRIDFORMAT
  1
GRIDFORMAT_BEGIN
 90
        0
 91
        1
 62
     0
 92
       -2
340
0
 93
        0
 40
0.045
309
GRIDFORMAT_END
 95
        4
302
GRIDFORMAT
  1
GRIDFORMAT_BEGIN
 90
        0
 91
        1
 62
     0
 92
       -2
340
0
 93
        0
 40
0.045
309
GRIDFORMAT_END
 95
        8
302
GRIDFORMAT
  1
GRIDFORMAT_BEGIN
 90
        0
 91
        1
 62
     0
 92
       -2
340
0
 93
        0
 40
0.045
309
GRIDFORMAT_END
 95
       16
302
GRIDFORMAT
  1
GRIDFORMAT_BEGIN
 90
        0
 91
        1
 62
     0
 92
       -2
340
0
 93
        0
 40
0.045
309
GRIDFORMAT_END
 95
       32
302
GRIDFORMAT
  1
GRIDFORMAT_BEGIN
 90
        0
 91
        1
 62
     0
 92
       -2
340
0
 93
        0
 40
0.045
309
GRIDFORMAT_END
309
TABLEFORMAT_END
  1
CELLSTYLE_BEGIN
 90
        3
 91
        2
300
_DATA
309
CELLSTYLE_END
  0
XRECORD
  5
8CBA
102
{ACAD_REACTORS
330
6F6E
102
}
330
6F6E
100
AcDbXrecord
280
     1
102
ACAD_ROUNDTRIP_PRE2007_TABLESTYLE
 90
      512
 91
        0
  1

 92
      512
 93
        0
  2

 94
      512
 95
        0
  3

  0
ENDSEC
  0
EOF
